Торрент файл
скачать торрент магнет ссылка Добавлен: 25 ноя 2016, 13:14
Размер: 7.75 ГБ
Сидеров: 310
Личеров: 87
Автор

СообщениеДобавлено: 25 ноя 2016, 13:14 

Не в сети
Дата регистрации:
28 сен 2016, 18:10
Спасибо: 211 / 0
Сообщения: 1999
✦ Год выхода: 2016
✦ Название: Зверополис
✦ Жанр: мультфильм, боевик, комедия, криминал, приключения, семейный
✦ Оригинальное название: Zootopia
✦ Режиссер: Байрон Ховард, Рич Мур, Джаред Буш
✦ В ролях: Джиннифер Гудвин, Джейсон Бейтман, Идрис Эльба, Дженни Слейт, Нейт Торренс, Бонни Хант

Описание фильма
Добро пожаловать в Зверополис — современный город, населенный самыми разными животными, от огромных слонов до крошечных мышек. Зверополис разделен на районы, полностью повторяющие естественную среду обитания разных жителей — здесь есть и элитный район Площадь Сахары и неприветливый Тундратаун. В этом городе появляется новый офицер полиции, жизнерадостная зайчиха Джуди Хоппс, которая с первых дней работы понимает, как сложно быть маленькой и пушистой среди больших и сильных полицейских. Джуди хватается за первую же возможность проявить себя, несмотря на то, что ее партнером будет болтливый хитрый лис Ник Уайлд. Вдвоем им предстоит раскрыть сложное дело, от которого будет зависеть судьба всех обитателей Зверополиса...

✦ Выпущено: США, Walt Disney Animation Studios, Walt Disney Pictures
✦ Продолжительность: 01:48:44
✦ Перевод: дублированный -
|| Лицензия ||

Информация о файле
✦ Формат:| MKV | x264 |
✦ Качество: BDRip 1080p
✦ Видео: X264/MPEG4-AVC | 1920x804 (2.40:1) | ~8926 kbps | 23.976 fps
✦ Аудио Rus: AC3 | 48 KHz | 5.1 (Front: L С R Side: L R) + LFE | ~640 kbps
✦ Аудио Eng: AC3 | 48 KHz | 5.1 (Front: L С R Side: L R) + LFE | ~640 kbps
✦ Субтитры: || (форсированные, полные) | Английские (полные) |

x264 [info]: frame I:1352 Avg QP:14.45 size:268894
x264 [info]: frame P:36077 Avg QP:17.13 size: 93684
x264 [info]: frame B:119000 Avg QP:18.93 size: 29704
Общее
Уникальный идентификатор : 212990453784085971209793544023602303526 (0xA03C7822CF0B90A0B0E811210EF71226)
Полное имя : X:ATorrentZootopia.(2016).BDRip.1080p.(qqss44).mkv
Формат : Matroska
Версия формата : Version 2
Размер файла : 7,75 Гбайт
Продолжительность : 1 ч. 48 м.
Общий поток : 10,2 Мбит/сек
Название фильма : Zootopia.(2016).BDRip.1080p.(qqss44)
Дата кодирования : UTC 2016-11-24 07:27:27
Программа кодирования : mkvmerge v7.9.0 ('Birds') 64bit
Библиотека кодирования : libebml v1.3.1 + libmatroska v1.4.2
Видео
Идентификатор : 1
Формат : AVC
Формат/Информация : Advanced Video Codec
Профиль формата : High@L4.1
Параметр CABAC формата : Да
Параметр ReFrames формата : 5 кадров
Идентификатор кодека : V_MPEG4/ISO/AVC
Продолжительность : 1 ч. 48 м.
Битрейт : 8926 Кбит/сек
Ширина : 1920 пикселей
Высота : 804 пикселя
Соотношение сторон : 2,40:1
Режим частоты кадров : Постоянный
Частота кадров : 23,976 (24000/1001) кадра/сек
Цветовое пространство : YUV
Субдискретизация насыщенности : 4:2:0
Битовая глубина : 8 бит
Тип развёртки : Прогрессивная
Бит/(Пиксели*Кадры) : 0.241
Размер потока : 6,78 Гбайт (87%)
Заголовок : Zootopia.(2016).BDRip.1080p.(qqss44)
Библиотека кодирования : x264 core 148 r2721kMod 72d53ab
Настройки программы : cabac=1 / ref=5 / deblock=1:-3:-3 / analyse=0x3:0x133 / me=umh / subme=11 / psy=1 / fade_compensate=0.00 / psy_rd=1.00:0.00 / mixed_ref=1 / me_range=32 / chroma_me=1 / trellis=2 / 8x8dct=1 / cqm=0 / deadzone=21,11 / fast_pskip=0 / chroma_qp_offset=-2 / threads=12 / lookahead_threads=2 / sliced_threads=0 / nr=0 / decimate=0 / interlaced=0 / bluray_compat=0 / constrained_intra=0 / fgo=0 / bframes=9 / b_pyramid=2 / b_adapt=2 / b_bias=0 / direct=3 / weightb=1 / open_gop=0 / weightp=2 / keyint=240 / keyint_min=23 / scenecut=40 / intra_refresh=0 / rc=2pass / mbtree=0 / bitrate=8926 / ratetol=1.0 / qcomp=0.60 / qpmin=0 / qpmax=69 / qpstep=4 / cplxblur=20.0 / qblur=0.5 / ip_ratio=1.40 / pb_ratio=1.30 / aq=3:0.70
Язык : English
Default : Да
Forced : Нет
Аудио #1
Идентификатор : 2
Формат : AC-3
Формат/Информация : Audio Coding 3
Расширение режима : CM (complete main)
Параметр Endianness формата : Big
Идентификатор кодека : A_AC3
Продолжительность : 1 ч. 48 м.
Вид битрейта : Постоянный
Битрейт : 640 Кбит/сек
Каналы : 6 каналов
Расположение каналов : Front: L C R, Side: L R, LFE
Частота : 48,0 КГц
Частота кадров : 31,250 кадров/сек (1536 spf)
Метод сжатия : С потерями
Размер потока : 498 Мбайт (6%)
Заголовок : DUB | DD5.1 @ 640 kbps
Язык : Russian
Default : Да
Forced : Нет
Аудио #2
Идентификатор : 3
Формат : AC-3
Формат/Информация : Audio Coding 3
Расширение режима : CM (complete main)
Параметр Endianness формата : Big
Идентификатор кодека : A_AC3
Продолжительность : 1 ч. 48 м.
Вид битрейта : Постоянный
Битрейт : 640 Кбит/сек
Каналы : 6 каналов
Расположение каналов : Front: L C R, Side: L R, LFE
Частота : 48,0 КГц
Частота кадров : 31,250 кадров/сек (1536 spf)
Метод сжатия : С потерями
Размер потока : 498 Мбайт (6%)
Заголовок : Original | DD5.1 @ 640 kbps
Язык : English
Default : Нет
Forced : Нет
Текст #1
Идентификатор : 4
Формат : UTF-8
Идентификатор кодека : S_TEXT/UTF8
Идентификатор кодека/Информация : UTF-8 Plain Text
Продолжительность : 1 ч. 25 м.
Битрейт : 2 бит/сек
Count of elements : 30
Размер потока : 1,28 Кбайт (0%)
Заголовок : Forced
Язык : Russian
Default : Да
Forced : Нет
Текст #2
Идентификатор : 5
Формат : UTF-8
Идентификатор кодека : S_TEXT/UTF8
Идентификатор кодека/Информация : UTF-8 Plain Text
Продолжительность : 1 ч. 38 м.
Битрейт : 122 бит/сек
Count of elements : 1734
Размер потока : 88,6 Кбайт (0%)
Заголовок : Full
Язык : Russian
Default : Нет
Forced : Нет
Текст #3
Идентификатор : 6
Формат : UTF-8
Идентификатор кодека : S_TEXT/UTF8
Идентификатор кодека/Информация : UTF-8 Plain Text
Продолжительность : 1 ч. 39 м.
Битрейт : 77 бит/сек
Count of elements : 2015
Размер потока : 56,5 Кбайт (0%)
Заголовок : Full
Язык : English
Default : Нет
Forced : Нет
Меню
00:00:00.000 : en:Chapter 01
00:00:59.559 : en:Chapter 02
00:05:50.099 : en:Chapter 03
00:10:05.563 : en:Chapter 04
00:14:31.537 : en:Chapter 05
00:18:24.019 : en:Chapter 06
00:26:03.353 : en:Chapter 07
00:30:57.438 : en:Chapter 08
00:37:07.099 : en:Chapter 09
00:40:43.441 : en:Chapter 10
00:44:31.752 : en:Chapter 11
00:51:40.430 : en:Chapter 12
00:55:40.378 : en:Chapter 13
01:00:48.269 : en:Chapter 14
01:03:37.855 : en:Chapter 15
01:09:19.822 : en:Chapter 16
01:13:39.164 : en:Chapter 17
01:17:07.372 : en:Chapter 18
01:21:52.365 : en:Chapter 19
01:28:19.168 : en:Chapter 20
01:32:43.432 : en:Chapter 21
01:36:12.141 : en:Chapter 22

[/font] Релиз от:




реклама партнёра


Вернуться к началу
 Профиль Отправить личное сообщение  
 
   Похожие торренты   Автор   Торрент   Размер 
В этой теме нет новых непрочитанных сообщений. Хороший динозавр / The Good Dinosaur (мультфильм, фэнтези, комедия, приключения, семейный, 2015) BDRip 1080p от New-Team & qqss44 | Локализованная версия | Лицензия

marya111

65 | 21

5.75 ГБ

В этой теме нет новых непрочитанных сообщений. Зверополис / Zootopia (Байрон Ховард, Рич Мур, Джаред Буш) [2016, мультфильм, боевик, комедия, криминал, приключения, семейный, BDRip 720p | Лицензия] Dub

marya111

342 | 11

3.32 ГБ

В этой теме нет новых непрочитанных сообщений. Зверополис / Zootopia (Байрон Ховард, Рич Мур, Джаред Буш) [2016, мультфильм, боевик, комедия, криминал, приключения, семейный, HDRip | Лицензия] Dub

marya111

2184 | 80

1.45 ГБ

В этой теме нет новых непрочитанных сообщений. Зверополис / Zootopia [2D/3D] [USA Transfer] (Байрон Ховард, Рич Мур, Джаред Буш) [2016, мультфильм, боевик, комедия, криминал, приключения, семейный, BD Remux 2D/3D 1080p] DUB [iTunes]

marya111

17 | 6

32.5 ГБ

В этой теме нет новых непрочитанных сообщений. Зверополис 3Д / Zootopia 3D [мультфильм, боевик, комедия, криминал, 2016] Blu-Ray CEE 1080p, Dub [3D-Video] [Лицензия]

salma3

20 | 15

45.8 ГБ

В этой теме нет новых непрочитанных сообщений. Отряд самоубийц / Suicide Squad (Фантастика, боевик, триллер, комедия, криминал, приключения, 2016) BDRip 1080p от New-Team & qqss44 | Театральная версия | Лицензия

marya111

1596 | 323

7.74 ГБ

В этой теме нет новых непрочитанных сообщений. Зверополис / Zootopia [приключения, комедия, семейный, 2016] BDRip, Dub [Лицензия]

salma3

212 | 5

1.46 ГБ


Начать новую тему Ответить на тему  [ 1 сообщение ] 




Для Мосгорсуда, Роскомнадзора и рекламодателей:: mosgorsud-torrent[собачка]yandex.ru