Торрент файл
скачать торрент магнет ссылка Добавлен: 24 ноя 2016, 13:42
Размер: 3.16 ГБ
Сидеров: 17
Личеров: 12
Автор

СообщениеДобавлено: 24 ноя 2016, 13:42 

Не в сети
Дата регистрации:
28 сен 2016, 18:10
Спасибо: 54 / 0
Сообщения: 942
Информация о фильме
Название: 10 друзей Кролика
Год выхода: 2015
Страна: Россия, АА студия "Пифагор"
Жанр: Мультсериал, приключения, детский, семейный
Продолжительность: 20 х ~ 00:05:21
Язык: русский
Режиссеры: Святослав Ушаков, Сергей Братерскии?, Андрей Свислоцкии?, Мария Шумилина, Барри Водос
Роли озвучивали: Никита Прозоровский, Ольга Зверева, Ольга Кузнецова, Анна Штукатурова, Анастасия Лапина, ...
О фильме: Они живут в мире, где нет людей, есть только животные. Приехавшие из разных уголков нашей замечательной планеты они быстро находят общий язык друг с другом и становятся настоящими друзьями. Каждый из них имеет увлечение или хобби. Например, заяц -спортсмен, занимается паркуром, кенгуру-садовник, крокодил и лиса — изобретатели и механики. Каждый их день насыщен приключениями, открытиями, развлечениями и весельем.
01. Обида
02. Изгоняющий пчёл
03. Похитители скворечников
04. Мумия
05. Богатырская доля
06. Спарринг партнер
07. Недогоняемый - звук пропадаетв середине
08. Почта
09. Вторжение
10. Огромная разница
11. Акула
12. Кролик в небе
13. Самый больной зуб
14. Новый будильник
15. Все выше и выше
16. Как согреть крокодила
17. Чувство полета
18. Волшебный орел
19. Сад камней
20. Бумеранг
Созданный совместными усилиями (кто знает, кто знает?) онлайн-кинотеатра ivi и легендарной детской программы «Спокойной ночи, малыши» мультсериал, над которым работали специалисты, приложившие руку к созданию мультфильмов «Ну, погоди!», «Маша и медведь»... Действие мультсериала «10 друзей Кролика» разворачивается в летнем лагере отдыха, где проводят свои каникулы звери. Сам лагерь находится в России, а населяют его жители разных стран и континентов. Несмотря на то, что зверушки прилетели сюда из разных частей света, им не составляет труда найти общий язык и подружиться. Здесь бок о бок, в своих симпатичных домиках, живут кенгуру-садовник, заяц-паркурщик, крокодил-механик и лиса-изобретатель. Каждый здесь занят своим делом, но при этом лагерь – это большая дружная семья. Здесь есть пляж, лодочная станция, оранжерея, мастерская, стадион и даже парк развлечений, поэтому зверятам никогда не бывает скучно. В каждой серии зайчонок Зай, которого тут все зовут Кроликом, и его друзья находят новые приключения. Как звери отдыхают в интернациональном летнем лагере под руководством медведя Михалыча и вожатых козла Коли и барана



Доп. информация:
Семпл


Файл
Формат: MKV
Качество: WEB-DL 1080p
Видео: MPEG4-AVC, High@L4, 1920x1080 (16:9), ~ 3 853 Kbps, 25.000 fps
Звук: 48.0 KHz, AC3 2.0, 192 Kbps
Субтитры: нет
17. Чувство полета. WEB-DL.1080p.-merci-.mkv
Format : Matroska
Format version : Version 2
File size : 157 MiB
Duration : 5mn 19s
Overall bit rate : 4 128 Kbps
Movie name : 10 друзей Кролика / Россия, АА студия "Пифагор" / -merci-
Encoded date : UTC 2016-11-21 09:20:43
Writing application : mkvmerge v5.8.0 ('No Sleep / Pillow') built on Sep 2 2012 15:37:04
Writing library : libebml v1.2.3 + libmatroska v1.3.0
Video
ID : 1
Format : AVC
Format/Info : Advanced Video Codec
Format profile : High@L4
Format settings, CABAC : Yes
Format settings, ReFrames : 2 frames
Codec ID : V_MPEG4/ISO/AVC
Duration : 5mn 19s
Bit rate : 3 853 Kbps
Width : 1 920 pixels
Height : 1 080 pixels
Display aspect ratio : 16:9
Frame rate mode : Constant
Frame rate : 25.000 fps
Color space : YUV
Chroma subsampling : 4:2:0
Bit depth : 8 bits
Scan type : Progressive
Bits/(Pixel*Frame) : 0.074
Stream size : 147 MiB (93%)
Title : 17. Чувство полета. WEB-DL.1080p.x264.-merci-
Language : Russian
Default : Yes
Forced : No
Color range : Limited
Color primaries : BT.709
Transfer characteristics : BT.709
Matrix coefficients : BT.709
Audio
ID : 2
Format : AC-3
Format/Info : Audio Coding 3
Mode extension : CM (complete main)
Format settings, Endianness : Big
Codec ID : A_AC3
Duration : 5mn 19s
Bit rate mode : Constant
Bit rate : 192 Kbps
Channel(s) : 2 channels
Channel positions : Front: L R
Sampling rate : 48.0 KHz
Frame rate : 31.250 fps (1536 spf)
Compression mode : Lossy
Stream size : 7.30 MiB (5%)
Title : rus
Language : Russian
Default : Yes
Forced : No


Релиз от:
Автор релиза: /




реклама партнёра


Вернуться к началу
 Профиль Отправить личное сообщение  
 
   Похожие торренты   Автор   Торрент   Размер 
В этой теме нет новых непрочитанных сообщений. Бумажки [01-62] (Мультсериал, детский, семейный, приключения, 2015-2016) WEB-DLRip 1080p от ExKinoRay

marya111

0 | 0

5.33 ГБ

В этой теме нет новых непрочитанных сообщений. Домовёнок Плюх / PLUH [01x01-20] (Мультсериал, детский, рисованный, комедия, 2014-2015) WEB-DL 1080p от ExKinoRay

marya111

39 | 6

753.4 МБ

В этой теме нет новых непрочитанных сообщений. Ангел Бэби [01x01-16,02x17-23 из ?] (Мультсериал, рисованный, детский, обучающий, 2015-2016) WEB-DLRip от ExKinoRay

marya111

0 | 0

1.96 ГБ

В этой теме нет новых непрочитанных сообщений. Марин и его друзья. Подводные истории / Bubble Marin [s01 + Бонусы] (Мультсериал, мультфильм, приключения, детский, 2014-2015) WEB-DLRip 1080p от ExKinoRay | D (Карусель)

marya111

11 | 1

13.59 ГБ

В этой теме нет новых непрочитанных сообщений. Маша и медведь: Game Over [59] ( Мультсериал, сказка, детский, семейный, 2016) WEB-DL 1080p от ExKinoRay

marya111

38 | 1

276.84 МБ

В этой теме нет новых непрочитанных сообщений. Киока / Kioka [01-11] ( Мультсериал, детский, обучающий, познавательный, 2015) WEB-DLRip 1080p от ExKinoRay | D

marya111

4 | 2

1.11 ГБ

В этой теме нет новых непрочитанных сообщений. Солнечные зайчики / Sunny Bunnies [s01] (Мультсериал, детский, комедия, приключения, 2015) WEB-DLRip 720p от ExKinoRay

marya111

0 | 0

1.13 ГБ


Начать новую тему Ответить на тему  [ 1 сообщение ] 




Для Мосгорсуда, Роскомнадзора и рекламодателей:: mosgorsud-torrent[собачка]yandex.ru