Торрент файл
скачать торрент магнет ссылка Добавлен: 17 ноя 2016, 23:21
Размер: 1.11 ГБ
Сидеров: 4
Личеров: 2
Автор

СообщениеДобавлено: 17 ноя 2016, 23:21 

Не в сети
Дата регистрации:
28 сен 2016, 18:10
Спасибо: 55 / 0
Сообщения: 942
Информация о фильме
Название: Киока
Оригинальное название: Kioka
Год выхода: 2015
Страна: Южная Корея, Goldilogks Studio, From East, KBS, KOCCA
Жанр: Мультсериал, детский, обучающий, познавательный
Продолжительность: 11 х ~ 00:07:00
Перевод: Профессиональный дублированный
Режиссеры: Ха Ши-Ким / Hwa-hee Kim, Нурен Шев / Nuranee Shaw
Роли озвучивали:
Киока - Лекси Джорден / Lexi Jorden
Селли (Selly) - Дженифер Кларк / Jennifer Clark
Бип, Буп (Beep, Boop) - Джесика Стрейс / Jessica Straus
Коко,Фифи, Боп (Koko, Fifi, Bop) - Мелиса Фешн / Melissa Fahn
О фильме: Добрый и милый мультик “Киока” для детей! В первой серии девочка Киока, ее песик и тюлень попадают в волшебную зимнюю страну... Новый развивающий мультик про любознательную девочку и ее друзей! Развивающие мультики для самых маленьких.
01. Воздушный змей
02. Льдинка
03. Увеличительное стекло
04. Носок
05. Коробка
06. На приеме у врача
07. Стеклянные шарики
08. Вкусная неприятность
09. Воздушный шар
10. Урок рисования
11. Талантливая Коко



Доп. информация:
Семпл


Файл
Формат: MP4
Качество: WEB-DLRip 1080p
Видео: MPEG4-AVC, High@L4, 1920x1080 (16:9), ~ 1 853 Kbps, 25.000 fps
Звук: 44.1 KHz, AC3 2.0, 126 Kbps
Субтитры: нет
02. Льдинка. Full-HD-merci-.mp4
Формат : MPEG-4
Профиль формата : Base Media
Идентификатор кодека : isom (isom/mp42)
Размер файла : 99,3 Мбайт
Продолжительность : 6 м. 59 с.
Режим общего битрейта : Переменный
Общий поток : 1984 Кбит/сек
Дата кодирования : UTC 2016-11-15 11:32:51
Дата пометки : UTC 2016-11-15 11:32:51
Программа кодирования : My MP4Box GUI 0.6.0.6
Видео
Идентификатор : 1
Формат : AVC
Формат/Информация : Advanced Video Codec
Профиль формата : High@L4
Параметр CABAC формата : Да
Параметр ReFrames формата : 3 кадра
Идентификатор кодека : avc1
Идентификатор кодека/Информация : Advanced Video Coding
Продолжительность : 6 м. 59 с.
Продолжительность оригинала : 6 м. 59 с.
Битрейт : 1853 Кбит/сек
Ширина : 1920 пикселей
Высота : 1080 пикселей
Соотношение сторон : 16:9
Режим частоты кадров : Постоянный
Частота кадров : 25,000 кадров/сек
Цветовое пространство : YUV
Субдискретизация насыщенности : 4:2:0
Битовая глубина : 8 бит
Тип развёртки : Прогрессивная
Бит/(Пиксели*Кадры) : 0.036
Размер потока : 92,8 Мбайт (93%)
Размер потока оригинала : 92,8 Мбайт (93%)
Язык : English
Дата кодирования : UTC 2016-11-15 11:32:51
Дата пометки : UTC 2016-11-15 11:32:51
Цветовой диапазон : Limited
Основные цвета : BT.709
Характеристики трансфера : BT.709
Коэффициенты матрицы : BT.709
mdhd_Duration : 419920
Аудио
Идентификатор : 2
Формат : AAC
Формат/Информация : Advanced Audio Codec
Профиль формата : LC
Идентификатор кодека : 40
Продолжительность : 6 м. 59 с.
Duration_FirstFrame : -21 мс.
Вид битрейта : Переменный
Битрейт : 126 Кбит/сек
Каналы : 2 канала
Расположение каналов : Front: L R
Частота : 44,1 КГц
Частота кадров : 43,066 кадра/сек (1024 spf)
Метод сжатия : С потерями
Размер потока : 6,29 Мбайт (6%)
Язык : English
Дата кодирования : UTC 2016-11-15 11:32:51
Дата пометки : UTC 2016-11-15 11:32:51
mdhd_Duration : 419981


Релиз от:
Автор релиза: /




реклама партнёра


Вернуться к началу
 Профиль Отправить личное сообщение  
 
   Похожие торренты   Автор   Торрент   Размер 
В этой теме нет новых непрочитанных сообщений. Ангел Бэби [01x01-16,02x17-23 из ?] (Мультсериал, рисованный, детский, обучающий, 2015-2016) WEB-DLRip от ExKinoRay

marya111

0 | 0

1.96 ГБ

В этой теме нет новых непрочитанных сообщений. Бумажки [01-62] (Мультсериал, детский, семейный, приключения, 2015-2016) WEB-DLRip 1080p от ExKinoRay

marya111

0 | 0

5.33 ГБ

В этой теме нет новых непрочитанных сообщений. Марин и его друзья. Подводные истории / Bubble Marin [s01 + Бонусы] (Мультсериал, мультфильм, приключения, детский, 2014-2015) WEB-DLRip 1080p от ExKinoRay | D (Карусель)

marya111

20 | 4

13.59 ГБ

В этой теме нет новых непрочитанных сообщений. Джинглики [01-06] (Мультсериал, детский, 2015) WEB-DLRip 720p от ExKinoRay

marya111

0 | 0

915.03 МБ

В этой теме нет новых непрочитанных сообщений. 10 друзей Кролика [01x01-20 из 92] (Мультсериал, приключения, детский, семейный, 2015) WEB-DL 1080p от ExKinoRay

marya111

17 | 12

3.16 ГБ

В этой теме нет новых непрочитанных сообщений. Солнечные зайчики / Sunny Bunnies [s01] (Мультсериал, детский, комедия, приключения, 2015) WEB-DLRip 720p от ExKinoRay

marya111

0 | 0

1.13 ГБ

В этой теме нет новых непрочитанных сообщений. Буба (booba) [1-13 + Бонусы] (Мультсериал, детский, приключения, комедия, 2014-2016) WEB-DLRip 1080p от ExKinoRay

marya111

21 | 5

975.38 МБ


Начать новую тему Ответить на тему  [ 1 сообщение ] 




Для Мосгорсуда, Роскомнадзора и рекламодателей:: mosgorsud-torrent[собачка]yandex.ru