Торрент файл
скачать торрент магнет ссылка Добавлен: 15 ноя 2016, 00:25
Размер: 13.59 ГБ
Сидеров: 25
Личеров: 6
Автор

СообщениеДобавлено: 15 ноя 2016, 00:25 

Не в сети
Дата регистрации:
28 сен 2016, 18:10
Спасибо: 62 / 0
Сообщения: 1040
Информация о фильме
Название: Марин и его друзья. Подводные истории
Оригинальное название: Bubble Marin
Год выхода: 2014-2015
Страна: Южная Корея, Redrover Co, Studio Dot
Жанр: Мультсериал, мультфильм, приключения, детский
Продолжительность: 52 х ~ 00:12:34, 10 х ~ 00:09:11
Перевод: Профессиональный дублированный (Карусель)
Режиссер: Ким Мин Сун
Роли озвучивали: Крис Парнелл, Макс Чарльз, Дэвид П. Смит, Дитер Джэнсен, Джефф Беннетт, Кари Уолгрен, Da'Vine Joy Randolph, Майк Белл, Джошуа Китон, Эрик Бауза
О фильме: Прекрасный подводный мир: он так многообразен, здесь столько интересного и неожиданного! Главный герой этой увлекательной истории – очаровательная субмарина по имени Марин. Он настолько добрый, что кажется, что приходить на помощь тем, кто попал в затруднительную ситуацию – его призвание. А все начинается с того, что тихоходные транспортные черепашки отвозят семью Марина не в то место, куда было нужно, и поэтому домик главного героя оказывается в маленьком городке со смешным названием Ква-Ква-Вилль. Но Марин ничуть не разочарован, ведь новое место жительства населено гостеприимными и симпатичными субмаринчиками, которые становятся в скором времени его лучшими друзьями. А главное, здесь ждут Мартина удивительные приключения, порой полные опасностей, столкновения с акулами и другими подводными хищниками...
01. Здравствуй, Аквавилль!
02. Марин – новый ученик
03. Стражи кораллов - вперед!
04. Украшаем штаб-квартиру
05. Дикий скат
06. Труба мистера Кана
07. Цветение кораллов
08. Капсула времени
09. Тайна мистера Кана
10. Удачный день
11. Дружба в опасности
12. Разгадать код
13. Лучший дедушка на свете
14. Уколы-это страшно
15. Охотники за привидениями
16. Никогда не лги
17. Офицер Марин
18. Торт! Торт!
19. Нам нужен злодей
20. Лучший в мире почтальон
21. Хороший сын
22. Хочу игровую приставку
23. Рождение Лоджитрона
24. Случай со шпионом
25. Верните нашу штаб-квартиру
26. Моя сестренка Руби
27. В поисках сенсации
28. Альто переезжает
29. Никаких секретов
30. Как вырастить коралловый цветок
31. Сон в летнюю ночь
32. Марин быстрее всех
33. Хочу стать взрослым
34. Никогда не притворяйся
35. Изобретение Мистера Кана
36. Тайные друзья
37. Альто и черепаха
38. День рождения Виви
39. Гого и Акула-Звезда
40. Уплывший скат
41. Детектив Марин
42. Альто учится мастерить
43. Что случилось с Лоджиком
44. Найти преступника
45. Папы снова в школе
46. Лоджик – чистюля
47. Тяжело в учении…
48. Викторина
49. Аквавилль в опасности. Ч-1
50. Аквавилль в опасности. Ч-2
51. Первая любовь Альто
52. Спасение кита
Бонус_Посмотри и раскрась:
Выпуск 1 - Посмотри и раскрась
Выпуск 2 - Сон в летнюю ночь
Выпуск 3 - Уколы-это страшно!
Выпуск 4 - Моя сестренка Руби
Выпуск 5 - Лучший почтальон
Выпуск 6 - Спасение кита
Выпуск 7 - Торт! Торт!
Выпуск 8 - Найти преступника
Выпуск 9 - Как вырастить цветок
Выпуск 10 - Посмотри и раскрась



Доп. информация:
Семпл


Файл
Формат: MP4
Качество: WEB-DLRip 1080p
Видео: MPEG4-AVC, High@L4, 1920x1080 (16:9), ~ 2 941 Kbps, 25.000 fps
Звук: 44.1 KHz, AAC-LC 2.0, 192 Kbps
39. Гого и Акула-Звезда. Full-HD-merci-.mp4
Формат : MPEG-4
Профиль формата : Base Media
Идентификатор кодека : isom (isom/mp42)
Размер файла : 282 Мбайт
Продолжительность : 12 м.
Режим общего битрейта : Переменный
Общий поток : 3131 Кбит/сек
Дата кодирования : UTC 2016-05-24 11:31:12
Дата пометки : UTC 2016-05-24 11:31:12
Программа кодирования : My MP4Box GUI 0.6.0.6
Видео
Идентификатор : 1
Формат : AVC
Формат/Информация : Advanced Video Codec
Профиль формата : High@L4
Параметр CABAC формата : Да
Параметр ReFrames формата : 3 кадра
Идентификатор кодека : avc1
Идентификатор кодека/Информация : Advanced Video Coding
Продолжительность : 12 м.
Продолжительность оригинала : 12 м.
Битрейт : 2941 Кбит/сек
Ширина : 1920 пикселей
Высота : 1080 пикселей
Соотношение сторон : 16:9
Режим частоты кадров : Постоянный
Частота кадров : 25,000 кадров/сек
Цветовое пространство : YUV
Субдискретизация насыщенности : 4:2:0
Битовая глубина : 8 бит
Тип развёртки : Прогрессивная
Бит/(Пиксели*Кадры) : 0.057
Размер потока : 264 Мбайт (94%)
Размер потока оригинала : 264 Мбайт (94%)
Язык : English
Дата кодирования : UTC 2016-05-24 11:31:12
Дата пометки : UTC 2016-05-24 11:31:12
mdhd_Duration : 754295
Аудио
Идентификатор : 2
Формат : AAC
Формат/Информация : Advanced Audio Codec
Профиль формата : LC
Идентификатор кодека : 40
Продолжительность : 12 м.
Вид битрейта : Переменный
Битрейт : 186 Кбит/сек
Каналы : 2 канала
Расположение каналов : Front: L R
Частота : 44,1 КГц
Частота кадров : 43,066 кадра/сек (1024 spf)
Метод сжатия : С потерями
Размер потока : 16,7 Мбайт (6%)
Язык : English
Дата кодирования : UTC 2016-05-24 11:31:12
Дата пометки : UTC 2016-05-24 11:31:12
mdhd_Duration : 754354


Релиз от:
Автор релиза: /




реклама партнёра


Вернуться к началу
 Профиль Отправить личное сообщение  
 
   Похожие торренты   Автор   Торрент   Размер 
В этой теме нет новых непрочитанных сообщений. Буба (booba) [1-13 + Бонусы] (Мультсериал, детский, приключения, комедия, 2014-2016) WEB-DLRip 1080p от ExKinoRay

marya111

62 | 11

975.38 МБ

В этой теме нет новых непрочитанных сообщений. Бумажки [01-62] (Мультсериал, детский, семейный, приключения, 2015-2016) WEB-DLRip 1080p от ExKinoRay

marya111

0 | 0

5.33 ГБ

В этой теме нет новых непрочитанных сообщений. Киока / Kioka [01-11] ( Мультсериал, детский, обучающий, познавательный, 2015) WEB-DLRip 1080p от ExKinoRay | D

marya111

9 | 2

1.11 ГБ

В этой теме нет новых непрочитанных сообщений. 10 друзей Кролика [01x01-20 из 92] (Мультсериал, приключения, детский, семейный, 2015) WEB-DL 1080p от ExKinoRay

marya111

30 | 15

3.16 ГБ

В этой теме нет новых непрочитанных сообщений. Солнечные зайчики / Sunny Bunnies [s01] (Мультсериал, детский, комедия, приключения, 2015) WEB-DLRip 720p от ExKinoRay

marya111

0 | 0

1.13 ГБ

В этой теме нет новых непрочитанных сообщений. Домовёнок Плюх / PLUH [01x01-20] (Мультсериал, детский, рисованный, комедия, 2014-2015) WEB-DL 1080p от ExKinoRay

marya111

67 | 7

753.4 МБ

В этой теме нет новых непрочитанных сообщений. Джинглики [01-06] (Мультсериал, детский, 2015) WEB-DLRip 720p от ExKinoRay

marya111

0 | 0

915.03 МБ


Начать новую тему Ответить на тему  [ 1 сообщение ] 




Для Мосгорсуда, Роскомнадзора и рекламодателей:: mosgorsud-torrent[собачка]yandex.ru