Торрент файл
скачать торрент магнет ссылка Добавлен: 15 ноя 2016, 00:25
Размер: 4.37 ГБ
Сидеров: 0
Личеров: 0
Автор

СообщениеДобавлено: 15 ноя 2016, 00:25 

Не в сети
Дата регистрации:
28 сен 2016, 18:10
Спасибо: 55 / 0
Сообщения: 942
Полный расколбас / Sausage Party

«Стоять до конца!»

Русское название: Полный расколбас
Оригинальное название: Sausage Party
Год выпуска: 2016
Жанр: мультфильм, фэнтези, комедия, приключения
Выпущено: США
Режиссер: Грег Тирнан, Конрад Вернон
В ролях: Сет Роген , Кристен Уиг , Джона Хилл , Билл Хейдер , Майкл Сера , Джеймс Франко , Дэнни МакБрайд , Крэйг Робинсон , Пол Радд , Ник Кролл , Дэвид Крамхолц , Эдвард Нортон
Перевод: Дублированный, Авторский одноголосый

Сюжет фильма:
Первая анимационная комедия для взрослых о невероятных приключениях еды из супермаркета. Съедобным друзьям предстоит получить ответ на главный вопрос: есть ли жизнь за стенами супермаркета, и что же происходит с продуктами после того, как они попадают к людям домой?

Качество: BDRip 720p
Формат: AVC (библиотека кодирования x.264)
Контейнер (Расширение): MKV
Видео: 1280x692, 5131 Кбит/сек, 23,976 кадр/сек, 0,242 Бит/[Пиксели*Кадры]
Аудио №1: русский / AC3 / 5.1 / 48 kHz / 640 kbps / |Дублированный|
Аудио №2: русский / AC3 / 5.1 / 48 kHz / 640 kbps / |Авторский одноголосый, М.Чадов|
Аудио №3: английский / AC3 / 5.1 / 48 kHz / 640 kbps /
Субтитры: русские (Forced), русские (Full), английские (Full), английские (SDH)
Навигация по главам(Чаптеры): есть
Продолжительность: 01:28:45
Внимание! В переводе М.Чадов присутствует ненормативная лексика.
Автор рипа: Сообщество:

Format : Matroska
Format version : Version 2
File size : 4.37 GiB
Duration : 1 h 28 min
Overall bit rate : 7 056 kb/s
Movie name : Sausage Party.2016.BDRip.720p.[denis100]
Encoded date : UTC 2016-11-12 11:18:07
Writing application : mkvmerge v5.8.0 ('No Sleep / Pillow') built on Sep 2 2012 15:37:04
Writing library : libebml v1.2.3 + libmatroska v1.3.0
Video
ID : 1
Format : AVC
Format/Info : Advanced Video Codec
Format profile : High@L4.1
Format settings, CABAC : Yes
Format settings, ReFrames : 9 frames
Codec ID : V_MPEG4/ISO/AVC
Duration : 1 h 28 min
Bit rate : 5 131 kb/s
Width : 1 280 pixels
Height : 692 pixels
Display aspect ratio : 1.85:1
Frame rate mode : Constant
Frame rate : 23.976 (24000/1001) FPS
Color space : YUV
Chroma subsampling : 4:2:0
Bit depth : 8 bits
Scan type : Progressive
Bits/(Pixel*Frame) : 0.242
Stream size : 3.10 GiB (71%)
Title : Sausage Party.2016.BDRip.720p.[denis100]
Writing library : x264 core 148 r2721 72d53ab
Encoding settings : cabac=1 / ref=9 / deblock=1:0:0 / analyse=0x3:0x133 / me=umh / subme=11 / psy=1 / psy_rd=1.00:0.05 / mixed_ref=1 / me_range=32 / chroma_me=1 / trellis=2 / 8x8dct=1 / cqm=0 / deadzone=21,11 / fast_pskip=0 / chroma_qp_offset=-3 / threads=6 / lookahead_threads=1 / sliced_threads=0 / nr=0 / decimate=1 / interlaced=0 / bluray_compat=0 / constrained_intra=0 / bframes=9 / b_pyramid=2 / b_adapt=2 / b_bias=0 / direct=3 / weightb=1 / open_gop=0 / weightp=2 / keyint=240 / keyint_min=23 / scenecut=40 / intra_refresh=0 / rc=2pass / mbtree=0 / bitrate=5131 / ratetol=1.0 / qcomp=0.60 / qpmin=0 / qpmax=69 / qpstep=4 / cplxblur=20.0 / qblur=0.5 / ip_ratio=1.40 / pb_ratio=1.30 / aq=1:0.95
Language : English
Default : Yes
Forced : No
Audio #1
ID : 2
Format : AC-3
Format/Info : Audio Coding 3
Mode extension : CM (complete main)
Format settings, Endianness : Big
Codec ID : A_AC3
Duration : 1 h 28 min
Bit rate mode : Constant
Bit rate : 640 kb/s
Channel(s) : 6 channels
Channel positions : Front: L C R, Side: L R, LFE
Sampling rate : 48.0 kHz
Frame rate : 31.250 FPS (1536 spf)
Compression mode : Lossy
Stream size : 406 MiB (9%)
Title : Дублированный
Language : Russian
Default : Yes
Forced : No
Audio #2
ID : 3
Format : AC-3
Format/Info : Audio Coding 3
Mode extension : CM (complete main)
Format settings, Endianness : Big
Codec ID : A_AC3
Duration : 1 h 28 min
Bit rate mode : Constant
Bit rate : 640 kb/s
Channel(s) : 6 channels
Channel positions : Front: L C R, Side: L R, LFE
Sampling rate : 48.0 kHz
Frame rate : 31.250 FPS (1536 spf)
Compression mode : Lossy
Stream size : 406 MiB (9%)
Title : AVO, М.Чадов
Language : Russian
Default : No
Forced : No
Audio #3
ID : 4
Format : AC-3
Format/Info : Audio Coding 3
Mode extension : CM (complete main)
Format settings, Endianness : Big
Codec ID : A_AC3
Duration : 1 h 28 min
Bit rate mode : Constant
Bit rate : 640 kb/s
Channel(s) : 6 channels
Channel positions : Front: L C R, Side: L R, LFE
Sampling rate : 48.0 kHz
Frame rate : 31.250 FPS (1536 spf)
Compression mode : Lossy
Stream size : 406 MiB (9%)
Language : English
Default : No
Forced : No
Text #1
ID : 5
Format : UTF-8
Codec ID : S_TEXT/UTF8
Codec ID/Info : UTF-8 Plain Text
Title : Forced
Language : Russian
Default : Yes
Forced : No
Text #2
ID : 6
Format : UTF-8
Codec ID : S_TEXT/UTF8
Codec ID/Info : UTF-8 Plain Text
Title : Full
Language : Russian
Default : No
Forced : No
Text #3
ID : 7
Format : UTF-8
Codec ID : S_TEXT/UTF8
Codec ID/Info : UTF-8 Plain Text
Title : Full
Language : English
Default : No
Forced : No
Text #4
ID : 8
Format : UTF-8
Codec ID : S_TEXT/UTF8
Codec ID/Info : UTF-8 Plain Text
Title : SDH
Language : English
Default : No
Forced : No
Menu
00:00:00.000 : en:00:00:00.000
00:04:24.264 : en:00:04:24.264
00:10:19.118 : en:00:10:19.118
00:15:27.844 : en:00:15:27.844
00:19:32.171 : en:00:19:32.171
00:24:53.701 : en:00:24:53.701
00:29:32.938 : en:00:29:32.938
00:35:44.142 : en:00:35:44.142
00:41:55.263 : en:00:41:55.263
00:48:18.521 : en:00:48:18.521
00:54:45.908 : en:00:54:45.908
00:59:54.508 : en:00:59:54.508
01:03:47.073 : en:01:03:47.073
01:08:01.286 : en:01:08:01.286
01:11:55.811 : en:01:11:55.811
01:16:03.809 : en:01:16:03.809
x264 [info]: frame I:1124 Avg QP:12.97 size:125317
x264 [info]: frame P:37546 Avg QP:15.32 size: 45236
x264 [info]: frame B:89010 Avg QP:17.41 size: 17721
x264 [info]: consecutive B-frames: 7.8% 6.0% 9.8% 39.5% 11.7% 18.0% 2.7% 3.9% 0.4% 0.1%




реклама партнёра


Вернуться к началу
 Профиль Отправить личное сообщение  
 
   Похожие торренты   Автор   Торрент   Размер 
В этой теме нет новых непрочитанных сообщений. Полный расколбас / Sausage Party (Мультфильм, фэнтези, комедия, приключения, 2016) BDRip-AVC от ExKinoRay | Лицензия

marya111

0 | 0

1.72 ГБ

В этой теме нет новых непрочитанных сообщений. Полный расколбас / Sausage Party (мультфильм, фэнтези, комедия, приключения, 2016) BDRip от ExKinoRay | iTunes

marya111

0 | 0

1.46 ГБ

В этой теме нет новых непрочитанных сообщений. Полный расколбас / Sausage Party (мультфильм, фэнтези, комедия, приключения, 2016) BDRip от HQCLUB | D | Лицензия

marya111

0 | 0

1.45 ГБ

В этой теме нет новых непрочитанных сообщений. Полный расколбас / Sausage Party [мультфильм, фэнтези, комедия, 2016] BDRip, Dub [Лицензия]

salma3

0 | 0

1.46 ГБ

В этой теме нет новых непрочитанных сообщений. Полный расколбас / Sausage Party ( мультфильм, фэнтези, комедия, приключения, 2016) HDRip | Line

marya111

0 | 0

1.37 ГБ

В этой теме нет новых непрочитанных сообщений. Полный расколбас / Сосисочная вечеринка / Sausage Party ( мультфильм, фэнтези, комедия, приключения, 2016) HDRip от Scarabey | Line

marya111

3665 | 82

1.44 ГБ

В этой теме нет новых непрочитанных сообщений. Полный расколбас / Сосисочная вечеринка / Sausage Party (мультфильм, фэнтези, комедия, приключения, 2016) HDRip от Scarabey | Line

marya111

0 | 0

1.41 ГБ


Начать новую тему Ответить на тему  [ 1 сообщение ] 




Для Мосгорсуда, Роскомнадзора и рекламодателей:: mosgorsud-torrent[собачка]yandex.ru