Торрент файл
скачать торрент магнет ссылка Добавлен: 10 ноя 2016, 02:08
Размер: 915.03 МБ
Сидеров: 0
Личеров: 0
Автор

СообщениеДобавлено: 10 ноя 2016, 02:08 

Не в сети
Дата регистрации:
28 сен 2016, 18:10
Спасибо: 62 / 0
Сообщения: 1040
Информация о фильме
Название: Джинглики
Год выхода: 2015
Страна: Россия, Open Alliance Media
Жанр: Мультсериал, детский
Продолжительность: 6 х ~ 00:11:10
Язык: русский
Режиссеры: Антон Верещагин
Роли озвучивали: Максим Тихонов, Элиза Мартиросова, Сергей Друзьяк, Софья Лебедева, Прохор Чеховской, Василий Аккерман, Наталья Терешкова, Диомид Виноградов, Антон Колесников
О фильме: Далеко-далеко от нас есть прекрасная страна Хэппиленд, где в волшебном городе Джингл-Сити живут маленькие человечки — Джинглики, весёлые и звонкие, словно колокольчики. В забавных приключениях, которые происходят в сказочном мире, без труда прочитываются всем привычные, знакомые и комичные жизненные ситуации.
01. Спорт — лучший друг Бедокура
02. Телохранитель
03. Третий этаж
04. Шеф-повар Бедокур
05. Требуется злодей
06. Пылесос разбушевался



Доп. информация:
Семпл


Файл
Формат: MP4
Качество: WEB-DLRip 720p
Видео: MPEG4-AVC, Main@L3.1, 1280x720 (16:9), ~ 2 198 Kbps, 25.000 fps
Звук: 44.1 KHz, AAC-LC 2.0, 192 Kbps
Субтитры: нет
06. Пылесос разбушевался. HD-merci-.mp4
Формат : MPEG-4
Профиль формата : Base Media
Идентификатор кодека : isom (isom/mp42)
Размер файла : 192 Мбайт
Продолжительность : 11 м.
Режим общего битрейта : Переменный
Общий поток : 2396 Кбит/сек
Дата кодирования : UTC 2016-11-04 04:53:42
Дата пометки : UTC 2016-11-04 04:53:42
Программа кодирования : My MP4Box GUI 0.6.0.6
Видео
Идентификатор : 1
Формат : AVC
Формат/Информация : Advanced Video Codec
Профиль формата : Main@L3.1
Параметр CABAC формата : Да
Параметр ReFrames формата : 3 кадра
Идентификатор кодека : avc1
Идентификатор кодека/Информация : Advanced Video Coding
Продолжительность : 11 м.
Продолжительность оригинала : 11 м.
Битрейт : 2198 Кбит/сек
Ширина : 1280 пикселей
Высота : 720 пикселей
Соотношение сторон : 16:9
Режим частоты кадров : Постоянный
Частота кадров : 25,000 кадров/сек
Цветовое пространство : YUV
Субдискретизация насыщенности : 4:2:0
Битовая глубина : 8 бит
Тип развёртки : Прогрессивная
Бит/(Пиксели*Кадры) : 0.095
Размер потока : 176 Мбайт (92%)
Размер потока оригинала : 176 Мбайт (92%)
Язык : English
Дата кодирования : UTC 2016-11-04 04:53:42
Дата пометки : UTC 2016-11-04 04:53:42
Цветовой диапазон : Limited
Основные цвета : BT.709
Характеристики трансфера : BT.709
Коэффициенты матрицы : BT.709
mdhd_Duration : 672800
Аудио
Идентификатор : 2
Формат : AAC
Формат/Информация : Advanced Audio Codec
Профиль формата : LC
Идентификатор кодека : 40
Продолжительность : 11 м.
Duration_FirstFrame : -5 мс.
Вид битрейта : Переменный
Битрейт : 192 Кбит/сек
Каналы : 2 канала
Расположение каналов : Front: L R
Частота : 44,1 КГц
Частота кадров : 43,066 кадра/сек (1024 spf)
Метод сжатия : С потерями
Размер потока : 15,5 Мбайт (8%)
Язык : English
Дата кодирования : UTC 2016-11-04 04:53:42
Дата пометки : UTC 2016-11-04 04:53:42
mdhd_Duration : 672863


Релиз от:
Автор релиза: /




реклама партнёра


Вернуться к началу
 Профиль Отправить личное сообщение  
 
   Похожие торренты   Автор   Торрент   Размер 
В этой теме нет новых непрочитанных сообщений. Джинглики [1 сезон: 1 серия] (Антон Верещагин) [Мультсериал, рисованный, детский, 2015] WEB-DLRip

Dracon

404 | 23

143.41 МБ

В этой теме нет новых непрочитанных сообщений. Солнечные зайчики / Sunny Bunnies [s01] (Мультсериал, детский, комедия, приключения, 2015) WEB-DLRip 720p от ExKinoRay

marya111

0 | 0

1.13 ГБ

В этой теме нет новых непрочитанных сообщений. Бумажки [01-62] (Мультсериал, детский, семейный, приключения, 2015-2016) WEB-DLRip 1080p от ExKinoRay

marya111

0 | 0

5.33 ГБ

В этой теме нет новых непрочитанных сообщений. Киока / Kioka [01-11] ( Мультсериал, детский, обучающий, познавательный, 2015) WEB-DLRip 1080p от ExKinoRay | D

marya111

9 | 2

1.11 ГБ

В этой теме нет новых непрочитанных сообщений. Ангел Бэби [01x01-16,02x17-23 из ?] (Мультсериал, рисованный, детский, обучающий, 2015-2016) WEB-DLRip от ExKinoRay

marya111

0 | 0

1.96 ГБ

В этой теме нет новых непрочитанных сообщений. Марин и его друзья. Подводные истории / Bubble Marin [s01 + Бонусы] (Мультсериал, мультфильм, приключения, детский, 2014-2015) WEB-DLRip 1080p от ExKinoRay | D (Карусель)

marya111

25 | 6

13.59 ГБ

В этой теме нет новых непрочитанных сообщений. Буба (booba) [1-13 + Бонусы] (Мультсериал, детский, приключения, комедия, 2014-2016) WEB-DLRip 1080p от ExKinoRay

marya111

62 | 11

975.38 МБ


Начать новую тему Ответить на тему  [ 1 сообщение ] 




Для Мосгорсуда, Роскомнадзора и рекламодателей:: mosgorsud-torrent[собачка]yandex.ru