Торрент файл
скачать торрент магнет ссылка Добавлен: 06 ноя 2016, 02:38
Размер: 2.59 ГБ
Сидеров: 56
Личеров: 3
Автор

СообщениеДобавлено: 06 ноя 2016, 02:38 

Не в сети
Дата регистрации:
28 сен 2016, 18:10
Спасибо: 62 / 0
Сообщения: 1040
Информация о фильме
Название: Кингсглейв: Последняя фантазия XV
Оригинальное название: Kingsglaive: Final Fantasy XV
Год выхода: 2016
Жанр: мультфильм, фантастика, фэнтези, приключения
Режиссер: Такэси Нодзуэ
В ролях: Аарон Пол, Лина Хиди, Шон Бин, Нейл Ньюбон, Аманда Пиери, Джон Кэмплинг, Адриан Буше, Андреа Тивадар
О фильме:
Волшебное королевство Люцис является домом для священного Кристалла, но враждебная империя Нифльхейм не остановится ни перед чем, чтобы захватить реликвию. Король Люциса Регис возглавляет элитный отряд солдат, именуемых «Кингсглейв». Вооружившись магией короля, Никс Ульрик и его верные товарищи из Кингсглейв становятся на защиту столицы Инсомния, чтобы остановить неумолимое наступление имперской армии. Перед превосходящими силами Нифльхейма Королю Регису ничего не остаётся, как согласиться на ультиматум, уступив все свои земли за пределами столицы и женив своего сына Ноктиса на Леди Лунафрее, бывшей принцессе ныне захваченной земли Тенебра. В разбушевавшейся войне махинации Нифльхейма превращают Инсомнию в грандиозное поле битвы, затягивая Никса в борьбу за выживание всего королевства...

Страна: Япония
Студия: Square Enix Co. Ltd., Square USA
Продолжительность: 01:55:33
Перевод: Профессиональный многоголосый закадровый
Файл
Кодек: H.265
Качество: BDRip HEVC-10bit 720р от SuperMin
Видео: 1280x536 (2.40:1), 1926 kbps, 23.976 fps
Звук:
Русский (AC3, 6 ch, 640 Кбит/с)
Английский (AC3, 6 ch, 640 Кбит/с)
Субтитры: Русские, английские
x265 [info]: frame I: 1416, Avg QP:19.50 kb/s: 8808.64
x265 [info]: frame P: 44128, Avg QP:20.14 kb/s: 3499.04
x265 [info]: frame B: 120704, Avg QP:21.98 kb/s: 1268.75
x265 [info]: global : 166248, Avg QP:21.47 kb/s: 1924.97
x265 [info]: consecutive B-frames: 12.4% 11.8% 10.7% 46.6% 7.0% 7.7% 1.8% 1.7% 0.5%
x265 [total]: encoded 166248 frames in 60364.45s (2.75 fps), 1924.97 kb/s
General
Unique ID : 222578732721929578112748887010266813433 (0xA7731AC93F5A5551A839784029DB93F9)
Complete name : G:Новая папкаКингсглейв.Последняя.фантазия.XV.2016.x265.BDRip.HEVC-10bit.720p.MVO.mkv
Format : Matroska
Format version : Version 4 / Version 2
File size : 2.59 GiB
Duration : 1 h 55 min
Overall bit rate : 3 208 kb/s
Movie name : Кингсглейв: Последняя фантазия XV (2016) - #LORDKILL#
Encoded date : UTC 2016-11-04 09:21:16
Writing application : mkvmerge v8.0.0 ('Til The Day That I Die') 64bit
Writing library : libebml v1.3.1 + libmatroska v1.4.2
Video
ID : 1
Format : HEVC
Format/Info : High Efficiency Video Coding
Codec ID : V_MPEGH/ISO/HEVC
Duration : 1 h 55 min
Bit rate : 1 926 kb/s
Width : 1 280 pixels
Height : 536 pixels
Display aspect ratio : 2.40:1
Frame rate mode : Constant
Frame rate : 23.976 (24000/1001) FPS
Color space : YUV
Chroma subsampling : 4:2:0
Bit depth : 10 bits
Bits/(Pixel*Frame) : 0.117
Stream size : 1.55 GiB (60%)
Writing library : x265 1.5+88-0e89af0781ee:[Windows][GCC 4.8.2][64 bit] 16bpp
Encoding settings : wpp / ctu=64 / min-cu-size=8 / max-tu-size=32 / tu-intra-depth=1 / tu-inter-depth=1 / me=2 / subme=5 / merange=96 / no-rect / no-amp / max-merge=2 / temporal-mvp / no-early-skip / rdpenalty=0 / no-tskip / no-tskip-fast / strong-intra-smoothing / no-lossless / no-cu-lossless / no-constrained-intra / no-fast-intra / open-gop / no-temporal-layers / interlace=0 / keyint=240 / min-keyint=23 / scenecut=40 / rc-lookahead=20 / bframes=8 / bframe-bias=0 / b-adapt=2 / ref=7 / weightp / no-weightb / aq-mode=1 / aq-strength=0.30 / cbqpoffs=0 / crqpoffs=0 / rd=3 / psy-rd=0.50 / psy-rdoq=0.00 / signhide / lft / sao / no-sao-non-deblock / b-pyramid / cutree / rc=crf / crf=19.5 / qcomp=0.80 / qpmin=0 / qpmax=51 / qpstep=4 / vbv-maxrate=12000 / vbv-bufsize=12000 / crf-max=0.0 / ipratio=1.10 / pbratio=1.10
Default : Yes
Forced : No
Audio #1
ID : 2
Format : AC-3
Format/Info : Audio Coding 3
Mode extension : CM (complete main)
Format settings, Endianness : Big
Codec ID : A_AC3
Duration : 1 h 55 min
Bit rate mode : Constant
Bit rate : 640 kb/s
Channel(s) : 6 channels
Channel positions : Front: L C R, Side: L R, LFE
Sampling rate : 48.0 kHz
Frame rate : 31.250 FPS (1536 spf)
Bit depth : 16 bits
Compression mode : Lossy
Stream size : 529 MiB (20%)
Title : Профессиональный многоголосый закадровый
Language : Russian
Default : Yes
Forced : No
Audio #2
ID : 3
Format : AC-3
Format/Info : Audio Coding 3
Mode extension : CM (complete main)
Format settings, Endianness : Big
Codec ID : A_AC3
Duration : 1 h 55 min
Bit rate mode : Constant
Bit rate : 640 kb/s
Channel(s) : 6 channels
Channel positions : Front: L C R, Side: L R, LFE
Sampling rate : 48.0 kHz
Frame rate : 31.250 FPS (1536 spf)
Bit depth : 16 bits
Compression mode : Lossy
Stream size : 529 MiB (20%)
Language : English
Default : No
Forced : No
Text #1
ID : 4
Format : UTF-8
Codec ID : S_TEXT/UTF8
Codec ID/Info : UTF-8 Plain Text
Duration : 1 h 55 min
Bit rate : 58 b/s
Count of elements : 1091
Stream size : 49.1 KiB (0%)
Language : Russian
Default : Yes
Forced : No
Text #2
ID : 5
Format : UTF-8
Codec ID : S_TEXT/UTF8
Codec ID/Info : UTF-8 Plain Text
Duration : 1 h 55 min
Bit rate : 46 b/s
Count of elements : 1237
Stream size : 39.4 KiB (0%)
Language : English
Default : No
Forced : No
Menu
00:00:00.000 : en:
00:12:06.976 : en:
00:15:48.530 : en:
00:20:23.847 : en:
00:25:41.998 : en:
00:32:14.724 : en:
00:39:02.214 : en:
00:43:44.788 : en:
00:50:06.294 : en:
00:54:59.421 : en:
01:02:13.521 : en:
01:12:55.287 : en:
01:21:00.230 : en:
01:26:24.512 : en:
01:37:18.374 : en:
01:41:57.152 : en:




реклама партнёра


Вернуться к началу
 Профиль Отправить личное сообщение  
 
   Похожие торренты   Автор   Торрент   Размер 
В этой теме нет новых непрочитанных сообщений. Кингсглейв: Последняя фантазия XV / Kingsglaive: Final Fantasy XV (мультфильм, фантастика, фэнтези, драма, приключения, 2016) BDRip от HQCLUB | P | Лицензия

marya111

1 | 0

2.18 ГБ

В этой теме нет новых непрочитанных сообщений. Кингсглейв: Последняя фантазия XV / Kingsglaive: Final Fantasy XV (Такэси Нодзуэ) [2016, мультфильм, фантастика, фэнтези, драма, приключения, BDRip | Лицензия] mvo

marya111

0 | 0

1.46 ГБ

В этой теме нет новых непрочитанных сообщений. Кингсглейв: Последняя фантазия XV (мультфильм, фантастика, фэнтези, приключения, 2016) BDRip 720р от SuperMin | P | Лицензия

marya111

0 | 0

3.93 ГБ

В этой теме нет новых непрочитанных сообщений. Кингсглейв: Последняя фантазия XV / Kingsglaive: Final Fantasy XV [мультфильм, фантастика, фэнтези, драма, приключения, 2016] WEB-DL 1080p, Dub [iTunes]

marya111

730 | 8

3.96 ГБ

В этой теме нет новых непрочитанных сообщений. Кингсглейв: Последняя фантазия XV / Kingsglaive: Final Fantasy XV (Такэси Нодзуэ) [2016, мультфильм, фантастика, фэнтези, драма, приключения, HDRip | iTunes] mvo

marya111

2 | 2

2.05 ГБ

В этой теме нет новых непрочитанных сообщений. Кингсглейв: Последняя фантазия XV / Kingsglaive: Final Fantasy XV [мультфильм, фантастика, фэнтези, 2016] WEB-DLRip, Mvo [iTunes]

salma3

1840 | 555

1.46 ГБ

В этой теме нет новых непрочитанных сообщений. Кингсглейв: Последняя фантазия XV / Kingsglaive: Final Fantasy XV [Мультфильм, фантастика, фэнтези, 2016] WEB-DL 720p, Mvo [iTunes]

salma3

0 | 0

3.72 ГБ


Начать новую тему Ответить на тему  [ 1 сообщение ] 




Для Мосгорсуда, Роскомнадзора и рекламодателей:: mosgorsud-torrent[собачка]yandex.ru