Торрент файл
скачать торрент магнет ссылка Добавлен: 06 ноя 2016, 02:38
Размер: 17.3 ГБ
Сидеров: 0
Личеров: 0
Автор

СообщениеДобавлено: 06 ноя 2016, 02:38 

Не в сети
Дата регистрации:
28 сен 2016, 18:10
Спасибо: 55 / 0
Сообщения: 942
Информация о фильме
Название: Полный расколбас
Оригинальное название: Sausage Party
Год выхода: 2016
Жанр: Мультфильм для взрослых, фэнтези, комедия, приключения, полнометражный
Режиссер: Грег Тирнан, Конрад Вернон
В ролях: Алистэр Эбелл, Айрис Апатоу, Стефани Бирд, Майкл Сера, Йен Джеймс Корлетт, Майкл Дэйнджерфилд, Брайан Добсон, Майкл Добсон, Джеймс Франко, Билл Хейдер
О фильме:
Не секрет, что вся вселенная - это гигантский супермаркет. Ничего не подозревающие продукты попадают в неизвестный им мир. Они думают что здесь можно отдохнуть и поразвлечься. Но в итоге оказывается что их всех заманили сюда чтобы съесть... Первая анимационная комедия для взрослых о невероятных приключениях еды из супермаркета. Съедобным друзьям предстоит получить ответ на главный вопрос: есть ли жизнь за стенами супермаркета и что же происходит с продуктами после того, как они попадают к людям домой?

Страна: США
Студия: Annapurna Pictures, Columbia Pictures, Nitrogen Studios Canada, Point Grey Pictures
Продолжительность: 01:28:45
Перевод: Дублированный | iTunes
Файл
Кодек: MPEG-4
Качество: BDRemux 1080p
Видео: 1920x1080, 24.9 Mbit/s, 23.976 fps
Звук:
Аудио #01: 48 kHz, AC3, 5.1, 384 Kbps | Дублированный | iTunes |
Аудио #02: 48 kHz, DTS-HD MA, 5.1, 2326 kbps | Оригинал |
Субтитры: Английские
General
Unique ID : 174801731343664968137899401930916619663 (0x838196C059F690D2BF5CD8A40C19E58F)
Complete name : H:VideoSausage.Party.2016.BDREMUX.1080p.ExKinoRay.mkv
Format : Matroska
Format version : Version 4 / Version 2
File size : 17.1 GiB
Duration : 1 h 28 min
Overall bit rate mode : Variable
Overall bit rate : 27.6 Mb/s
Movie name : build by ***селезень***
Encoded date : UTC 2016-10-25 01:47:56
Writing application : mkvmerge v8.3.0 ('Over the Horizon') 64bit
Writing library : libebml v1.3.1 + libmatroska v1.4.2
Video
ID : 1
Format : AVC
Format/Info : Advanced Video Codec
Format profile : High@L4.1
Format settings, CABAC : Yes
Format settings, ReFrames : 2 frames
Format settings, GOP : M=1, N=10
Codec ID : V_MPEG4/ISO/AVC
Duration : 1 h 28 min
Bit rate mode : Variable
Bit rate : 24.9 Mb/s
Width : 1 920 pixels
Height : 1 080 pixels
Display aspect ratio : 16:9
Frame rate mode : Constant
Frame rate : 23.976 (24000/1001) FPS
Color space : YUV
Chroma subsampling : 4:2:0
Bit depth : 8 bits
Scan type : Progressive
Bits/(Pixel*Frame) : 0.501
Stream size : 15.5 GiB (90%)
Title : build by ***селезень***
Language : English
Default : Yes
Forced : No
Audio #1
ID : 2
Format : AC-3
Format/Info : Audio Coding 3
Mode extension : CM (complete main)
Format settings, Endianness : Big
Codec ID : A_AC3
Duration : 1 h 28 min
Bit rate mode : Constant
Bit rate : 384 kb/s
Channel(s) : 6 channels
Channel positions : Front: L C R, Side: L R, LFE
Sampling rate : 48.0 kHz
Frame rate : 31.250 FPS (1536 spf)
Compression mode : Lossy
Delay relative to video : 960 ms
Stream size : 244 MiB (1%)
Title : iTunes
Language : Russian
Default : Yes
Forced : No
Audio #2
ID : 3
Format : DTS
Format/Info : Digital Theater Systems
Format profile : MA / Core
Mode : 16
Format settings, Endianness : Big
Codec ID : A_DTS
Duration : 1 h 28 min
Bit rate mode : Variable / Constant
Bit rate : 2 326 kb/s / 1 509 kb/s
Channel(s) : 6 channels
Channel positions : Front: L C R, Side: L R, LFE
Sampling rate : 48.0 kHz
Frame rate : 93.750 FPS (512 spf)
Bit depth : 16 bits
Compression mode : Lossless / Lossy
Stream size : 1.44 GiB (8%)
Title : Original
Language : English
Default : No
Forced : No
Text #1
ID : 4
Format : UTF-8
Codec ID : S_TEXT/UTF8
Codec ID/Info : UTF-8 Plain Text
Duration : 1 h 26 min
Bit rate : 85 b/s
Count of elements : 1457
Stream size : 53.8 KiB (0%)
Title : Full
Language : English
Default : No
Forced : No
Text #2
ID : 5
Format : UTF-8
Codec ID : S_TEXT/UTF8
Codec ID/Info : UTF-8 Plain Text
Duration : 1 h 27 min
Bit rate : 91 b/s
Count of elements : 1703
Stream size : 58.0 KiB (0%)
Title : SDH
Language : English
Default : No
Forced : No
Menu
00:00:00.000 : en:00:00:00.000
00:04:24.264 : en:00:04:24.264
00:10:19.118 : en:00:10:19.118
00:15:27.844 : en:00:15:27.844
00:19:32.171 : en:00:19:32.171
00:24:53.701 : en:00:24:53.701
00:29:32.938 : en:00:29:32.938
00:35:44.142 : en:00:35:44.142
00:41:55.263 : en:00:41:55.263
00:48:18.521 : en:00:48:18.521
00:54:45.908 : en:00:54:45.908
00:59:54.508 : en:00:59:54.508
01:03:47.073 : en:01:03:47.073
01:08:01.286 : en:01:08:01.286
01:11:55.811 : en:01:11:55.811
01:16:03.809 : en:01:16:03.809


Релиз от: Автор релиза:




реклама партнёра


Вернуться к началу
 Профиль Отправить личное сообщение  
 
   Похожие торренты   Автор   Торрент   Размер 
В этой теме нет новых непрочитанных сообщений. Полный расколбас / Sausage Party (Мультфильм для взрослых, фэнтези, комедия, приключения, полнометражный, 2016) BDRemux 1080p от ExKinoRay | iTunes

marya111

0 | 0

17.14 ГБ

В этой теме нет новых непрочитанных сообщений. Полный расколбас / Sausage Party (мультфильм, фэнтези, комедия, приключения, 2016) BDRip от ExKinoRay | iTunes

marya111

0 | 0

1.46 ГБ

В этой теме нет новых непрочитанных сообщений. Полный расколбас / Sausage Party (Мультфильм, фэнтези, комедия, приключения, 2016) BDRip-AVC от ExKinoRay | Лицензия

marya111

0 | 0

1.72 ГБ

В этой теме нет новых непрочитанных сообщений. Полный расколбас / Sausage Party (фэнтези, комедия, приключения, 2016) BDRip 1080p от New-Team & qqss44 | iTunes

marya111

0 | 0

5.65 ГБ

В этой теме нет новых непрочитанных сообщений. Полный расколбас / Sausage Party ( мультфильм, фэнтези, комедия, приключения, 2016) HDRip | Line

marya111

0 | 0

1.37 ГБ

В этой теме нет новых непрочитанных сообщений. Полный расколбас / Sausage Party (мультфильм, фэнтези, комедия, приключения, 2016) BDRip 720p от NNNB | D, A

marya111

0 | 0

4.37 ГБ

В этой теме нет новых непрочитанных сообщений. Полный расколбас / Sausage Party (мультфильм, фэнтези, комедия, приключения, 2016) BDRip от HQCLUB | D | Лицензия

marya111

0 | 0

1.45 ГБ


Начать новую тему Ответить на тему  [ 1 сообщение ] 




Для Мосгорсуда, Роскомнадзора и рекламодателей:: mosgorsud-torrent[собачка]yandex.ru