Торрент файл
скачать торрент магнет ссылка Добавлен: 05 ноя 2016, 00:49
Размер: 3.06 ГБ
Сидеров: 0
Личеров: 0
Автор

СообщениеДобавлено: 05 ноя 2016, 00:49 

Не в сети
Дата регистрации:
28 сен 2016, 18:10
Спасибо: 55 / 0
Сообщения: 942
Информация о фильме
Название: Стар против Сил Зла
Другие названия: Звезда против Сил Зла / Звёздная Принцесса и Силы Зла
Оригинальное название: Star vs. the Forces of Evil
Год выхода: 2016
Страна: США, Disney Television Animation, Disney XD, Daron Nefcy Productions
Жанр: Фантастика, комедия, приключения, мультсериал
Продолжительность: 13 x ~ 00:22:00
Перевод: Любительский двухголосый (Cactus Team)
Режиссеры: Дэвид Вассон, Пьеро Пилузо, Аарон Хэммерсли, Майкл Маллен
Роли озвучивали: Артт Батлер, Джон Хидер, Адам МакАртур, Мина Нодзи, Брайан Посен, Райдер Стронг, Иден Шер
О фильме: История о девочке, живущей в ином измерении, по имени Стар Баттерфляй, которая получила в 14 лет волшебную палочку. Но после того, как Стар чуть ли не превратила свой родной город в прах, родители отправили её в другое измерение, которое называется Земля, чтобы жить с семьёй Диаз, которая состоит из добродушных родителей и подростка по имени Марко. Все одноклассники и друзья считают его тихоней, который остерегается даже обыкновенного падения. Марко считает это неправдой, и из-за такой репутации подросток жаждет приключений и опасностей.
2 сезон - 2016 (12 июля - 22 ноября 2016)
s2e01. My New Wand! + Ludo in the Wild (12 июля 2016 )
s2e02. Mr. Candle Cares + Red Belt
s2e03. Star on Wheels + Fetch
s2e04. Star vs. Echo Creek + Wand to Wand
s2e05. Starstruck + Camping Trip
s2e06. Starsitting + On the Job
s2e07. Goblin Dogs + By the Book
s2e08. Game of Flags + Girls' Day Out
s2e09. Sleepover + Gift of the Card
s2e10. Friendenemies + Is Mystery
s2e11. Hungry Larry + Spider with a Top Hat
s2e12. Into the Wand + Pizza Thing (8 ноября 2016)
s2e13. Page Turner + Naysaya (15 ноября 2016)
s2e14. Bon Bon the Birthday Clown (22 ноября 2016)




Доп. информация:
Семпл


Файл
Формат: AVI
Качество: WEB-DLRip
Видео: 720x400 (1.80:1), 23.976 fps, XviD build 65 ~1604 kbps avg, 0.232 bit/pixel
Звук: 48 kHz, AC3 Dolby Digital, 2/0 (L,R) ch, ~192.00 kbps avg
Субтитры: нет
s2e08. Game of Flags + Girls' Day Out. DVO.XviD-merci-.avi
Формат : AVI
Формат/Информация : Audio Video Interleave
Размер файла : 285 Мбайт
Продолжительность : 22 м.
Общий поток : 1806 Кбит/сек
Программа кодирования : VirtualDubMod 1.5.10.3 | www.virtualdub-fr.org || (build 2550/release)
Библиотека кодирования : VirtualDubMod build 2550/release
Видео
Идентификатор : 0
Формат : MPEG-4 Visual
Профиль формата : Advanced Simple@L5
Параметр BVOP формата : 1
Параметр QPel формата : Нет
Параметр GMC формата : Без точки перехода
Параметр матрицы формата : Default (MPEG)
Идентификатор кодека : XVID
Идентификатор кодека/Подсказка : XviD
Продолжительность : 22 м.
Битрейт : 1604 Кбит/сек
Ширина : 720 пикселей
Высота : 400 пикселей
Соотношение сторон : 16:9
Частота кадров : 23,976 (23976/1000) кадра/сек
Цветовое пространство : YUV
Субдискретизация насыщенности : 4:2:0
Битовая глубина : 8 бит
Тип развёртки : Прогрессивная
Метод сжатия : С потерями
Бит/(Пиксели*Кадры) : 0.232
Размер потока : 253 Мбайт (89%)
Библиотека кодирования : XviD 65
Аудио
Идентификатор : 1
Формат : AC-3
Формат/Информация : Audio Coding 3
Расширение режима : CM (complete main)
Параметр Endianness формата : Big
Идентификатор кодека : 2000
Продолжительность : 22 м.
Вид битрейта : Постоянный
Битрейт : 192 Кбит/сек
Каналы : 2 канала
Расположение каналов : Front: L R
Частота : 48,0 КГц
Частота кадров : 31,250 кадров/сек (1536 spf)
Метод сжатия : С потерями
Размер потока : 30,3 Мбайт (11%)
Выравнивание : Разделение по промежуткам
Продолжительность промежутка : 42 мс. (1,00 видеокадр)
Время предзагрузки промежутка : 500 мс.


Релиз от:
Автор релиза: /




реклама партнёра


Вернуться к началу
 Профиль Отправить личное сообщение  
 
   Похожие торренты   Автор   Торрент   Размер 
В этой теме нет новых непрочитанных сообщений. Стар против Сил Зла / Star vs the Forces of Evil [s02x01-11 из 14)] (Фантастика, комедия, приключения, мультсериал, 2016) WEB-DLRip от ExKinoRay | L2

marya111

0 | 0

3.06 ГБ

В этой теме нет новых непрочитанных сообщений. Стар против Сил Зла / Star vs the Forces of Evil [s01] (Фантастика, комедия, приключения, мультсериал, 2015) WEB-DLRip от ExKinoRay | L2

marya111

0 | 0

3.5 ГБ

В этой теме нет новых непрочитанных сообщений. Звёздная принцесса и силы зла / Star vs the Forces of Evil [s01] (Фантастика, комедия, приключения, мультсериал, 2015) WEB-DLRip от ExKinoRay | D

marya111

22 | 5

3.5 ГБ

В этой теме нет новых непрочитанных сообщений. Буба (booba) [1-13 + Бонусы] (Мультсериал, детский, приключения, комедия, 2014-2016) WEB-DLRip 1080p от ExKinoRay

marya111

21 | 5

975.38 МБ

В этой теме нет новых непрочитанных сообщений. Бумажки [01-62] (Мультсериал, детский, семейный, приключения, 2015-2016) WEB-DLRip 1080p от ExKinoRay

marya111

0 | 0

5.33 ГБ

В этой теме нет новых непрочитанных сообщений. Стартрек: Бесконечность / Star Trek Beyond (Фантастика, боевик, триллер, приключения, 2016) BDRemux 1080p от ExKinoRay | iTunes

marya111

0 | 0

27.05 ГБ

В этой теме нет новых непрочитанных сообщений. Стартрек: Бесконечность / Star Trek Beyond ( Фантастика, боевик, триллер, приключения, 2016) BDRemux 1080p от ExKinoRay | 3D-Video | iTunes

marya111

0 | 0

39.51 ГБ


Начать новую тему Ответить на тему  [ 1 сообщение ] 




Для Мосгорсуда, Роскомнадзора и рекламодателей:: mosgorsud-torrent[собачка]yandex.ru