Торрент файл
скачать торрент магнет ссылка Добавлен: 04 ноя 2016, 02:14
Размер: 2.74 ГБ
Сидеров: 492
Личеров: 23
Автор

СообщениеДобавлено: 04 ноя 2016, 02:14 

Не в сети
Дата регистрации:
28 сен 2016, 18:10
Спасибо: 211 / 0
Сообщения: 1999
Информация о фильме
Название: В поисках Дори
Оригинальное название: Finding Dory
Год выхода: 2016
Жанр: Мультфильм, комедия, приключения, семейный
Режиссер: Эндрю Стэнтон, Энгус МакЛэйн
В ролях: Эллен ДеДженерес, Альберт Брукс, Эд О’Нил, Кэйтлин Олсон, Хайден Роуленс, Тай Буррелл, Дайан Китон, Юджин Леви, Слоун Мюррэй, Идрис Эльба
О фильме:
Дори — синяя доброжелательная рыбка-хирург, страдающая провалами в памяти. Она упорно стремится избавиться от своего недуга и найти свою семью.

Страна: США
Студия: Pixar Animation Studios, Walt Disney Pictures
Продолжительность: 01:37:03
Перевод: Профессиональный (полное дублирование) [iTunes]
Файл
Кодек: x264
Качество: BDRip 720p
Видео: 1280х720 (16:9), 23,976 fps, AVC (H.264), High@L4.1, ~3653 Kbps avg, 0.165 bit/pixel
Звук: 48 kHz, AC3 Dolby Digital, 3/2 (L,C,R,l,r) + LFE ch, ~384 kbps
Субтитры: Русские, английские
General
Unique ID : 241432698327188821811707227107814920393 (0xB5A23F0F3CC663C0BAFB05F60DC1D0C9)
Complete name : J:СборкаВ поисках Дори. - Finding.Dory.2016.720p.BDRiр.x264.mkv
Format : Matroska
Format version : Version 4 / Version 2
File size : 2.74 GiB
Duration : 1h 37mn
Overall bit rate : 4 045 Kbps
Encoded date : UTC 2016-10-30 13:45:53
Writing application : mkvmerge v7.3.0 ('Nouages') 32bit built on Oct 22 2014 18:44:01
Writing library : libebml v1.3.0 + libmatroska v1.4.1
DURATION : 01:35:08.249000000
NUMBER_OF_FRAMES : 1469
NUMBER_OF_BYTES : 91118
_STATISTICS_WRITING_APP : mkvmerge v7.3.0 ('Nouages') 32bit built on Oct 22 2014 18:44:01
_STATISTICS_WRITING_DATE_UTC : 2016-10-30 13:45:53
_STATISTICS_TAGS : BPS DURATION NUMBER_OF_FRAMES NUMBER_OF_BYTES
Video #1
ID : 1
Format : AVC
Format/Info : Advanced Video Codec
Format profile : High@L4.1
Format settings, CABAC : Yes
Format settings, ReFrames : 9 frames
Codec ID : V_MPEG4/ISO/AVC
Duration : 1h 37mn
Bit rate : 3 653 Kbps
Width : 1 280 pixels
Height : 720 pixels
Display aspect ratio : 16:9
Frame rate mode : Constant
Frame rate : 23.976 fps
Color space : YUV
Chroma subsampling : 4:2:0
Bit depth : 8 bits
Scan type : Progressive
Bits/(Pixel*Frame) : 0.165
Stream size : 2.43 GiB (89%)
Writing library : x264 core 148 r292 72d53ab
Encoding settings : cabac=1 / ref=9 / deblock=1:-2:-2 / analyse=0x3:0x113 / me=umh / subme=11 / psy=1 / psy_rd=0.90:0.00 / mixed_ref=1 / me_range=32 / chroma_me=1 / trellis=2 / 8x8dct=1 / cqm=0 / deadzone=21,11 / fast_pskip=0 / chroma_qp_offset=-2 / threads=6 / lookahead_threads=1 / sliced_threads=0 / nr=0 / decimate=1 / interlaced=0 / bluray_compat=0 / constrained_intra=0 / bframes=9 / b_pyramid=2 / b_adapt=2 / b_bias=0 / direct=3 / weightb=1 / open_gop=0 / weightp=2 / keyint=240 / keyint_min=23 / scenecut=40 / intra_refresh=0 / rc_lookahead=60 / rc=2pass / mbtree=0 / bitrate=3653 / ratetol=1.0 / qcomp=0.62 / qpmin=0 / qpmax=69 / qpstep=4 / cplxblur=20.0 / qblur=0.5 / vbv_maxrate=38000 / vbv_bufsize=32000 / nal_hrd=none / filler=0 / ip_ratio=1.34 / pb_ratio=1.22 / aq=1:0.80
Language : Portuguese
Default : Yes
Forced : No
Audio #2
ID : 2
Format : AC-3
Format/Info : Audio Coding 3
Mode extension : CM (complete main)
Format settings, Endianness : Big
Codec ID : A_AC3
Duration : 1h 37mn
Bit rate mode : Constant
Bit rate : 384 Kbps
Channel(s) : 6 channels
Channel positions : Front: L C R, Side: L R, LFE
Sampling rate : 48.0 KHz
Bit depth : 16 bits
Compression mode : Lossy
Delay relative to video : 14ms
Stream size : 267 MiB (9%)
Title : Dub (iTunes)
Language : Russian
Default : Yes
Forced : No
Text #3
ID : 3
Format : UTF-8
Codec ID : S_TEXT/UTF8
Codec ID/Info : UTF-8 Plain Text
Title : Full
Language : Russian
Default : No
Forced : No
DURATION : 01:35:07.993000000
NUMBER_OF_FRAMES : 1578
NUMBER_OF_BYTES : 60724
_STATISTICS_WRITING_APP : mkvmerge v7.3.0 ('Nouages') 32bit built on Oct 22 2014 18:44:01
_STATISTICS_WRITING_DATE_UTC : 2016-10-30 13:45:53
_STATISTICS_TAGS : BPS DURATION NUMBER_OF_FRAMES NUMBER_OF_BYTES
Text #4
ID : 4
Format : UTF-8
Codec ID : S_TEXT/UTF8
Codec ID/Info : UTF-8 Plain Text
Title : Full
Language : English
Default : No
Forced : No
DURATION : 01:35:21.006000000
NUMBER_OF_FRAMES : 1764
NUMBER_OF_BYTES : 66114
_STATISTICS_WRITING_APP : mkvmerge v7.3.0 ('Nouages') 32bit built on Oct 22 2014 18:44:01
_STATISTICS_WRITING_DATE_UTC : 2016-10-30 13:45:53
_STATISTICS_TAGS : BPS DURATION NUMBER_OF_FRAMES NUMBER_OF_BYTES
Text #5
ID : 5
Format : UTF-8
Codec ID : S_TEXT/UTF8
Codec ID/Info : UTF-8 Plain Text
Title : SDH
Language : English
Default : No
Forced : No

x264 [info]: frame I:874 Avg QP:15.82 size: 95093
x264 [info]: frame P:32989 Avg QP:18.58 size: 34997
x264 [info]: frame B:105765 Avg QP:20.31 size: 13484
x264 [info]: consecutive B-frames: 2.8% 2.7% 13.6% 22.7% 16.0% 33.9% 4.2% 0.9% 2.4% 0.8%





реклама партнёра


Вернуться к началу
 Профиль Отправить личное сообщение  
 
   Похожие торренты   Автор   Торрент   Размер 
В этой теме нет новых непрочитанных сообщений. В поисках Дори / Finding Dory ( мультфильм, комедия, приключения, семейный, 2016) BDRip-AVC от HELLYWOOD | iTunes

marya111

214 | 10

1.46 ГБ

В этой теме нет новых непрочитанных сообщений. В поисках Дори / Finding Dory (комедия, приключения, семейный, 2016) BDRip 720p от HELLYWOOD | iTunes

marya111

0 | 0

4.2 ГБ

В этой теме нет новых непрочитанных сообщений. В поисках Дори / Finding Dory [мультфильм, комедия, приключения, семейный, 2016] BDRip 720p, Dub [Лицензия]

salma3

178 | 20

6.55 ГБ

В этой теме нет новых непрочитанных сообщений. В поисках Дори / Finding Dory (Мультфильм, комедия, приключения, семейный, 2016) WEB-DLRip | iTunes

marya111

0 | 0

745.54 МБ

В этой теме нет новых непрочитанных сообщений. В поисках Дори / Finding Dory (мультфильм, комедия, приключения, семейный, 2016) WEB-DLRip от Scarabey | iTunes

marya111

0 | 0

1.4 ГБ

В этой теме нет новых непрочитанных сообщений. В поисках Дори / Finding Dory (мультфильм, комедия, приключения, семейный, 2016) WEB-DLRip от Scarabey | iTunes

marya111

335 | 20

745.52 МБ

В этой теме нет новых непрочитанных сообщений. В поисках Дори / Finding Dory ( Мультфильм, комедия, приключения, семейный, 2016) BDRemux 1080p от ExKinoRay | iTunes

marya111

0 | 0

19.36 ГБ


Начать новую тему Ответить на тему  [ 1 сообщение ] 




Для Мосгорсуда, Роскомнадзора и рекламодателей:: mosgorsud-torrent[собачка]yandex.ru