Торрент файл
скачать торрент магнет ссылка Добавлен: 04 ноя 2016, 02:13
Размер: 1.85 ГБ
Сидеров: 0
Личеров: 0
Автор

СообщениеДобавлено: 04 ноя 2016, 02:13 

Не в сети
Дата регистрации:
28 сен 2016, 18:10
Спасибо: 211 / 0
Сообщения: 1999
Гамба в 3D / Gamba: Ganba to nakamatachi
Страна: Япония
Производство: Arad Productions, Shirogumi, Toei Animation Company
Год выпуска: 2015
Жанр: мультфильм, приключения
Продолжительность: 01:29:58
Режиссеры: Томохиро Кавамура, Йосихиро Комори
Авторы сценария: Рёта Косава, Атсуо Сайто
В ролях: Кэйдзи Фудзивара, Сюити Икэда, Юки Кадзи, Саяка, Мансай Номура, Масако Нодзава, Ватару Такаги, Ясухиро Такато
Описание: Смелому и задиристому мышонку Гамбе мало побед на полных опасностей ночных улицах. Вместе с друзьями он отправляется на небольшой остров в океане, чтобы спасти мышиную деревню, которую терроризирует банда хорьков во главе со злобным Скалозубом. Сражения на земле, под водой и в воздухе, смертельная опасность и — любовь красавицы Мышуньки — награда за подвиги...

Перевод: Профессиональный (полное дублирование) | чистый звук
Субтитры: нет

Качество: WEB-DLRip 720p
Формат: МКV
Видео кодек: AVC
Аудио кодек: АС3
Видео: 1280x536 (2.40:1), 25.000 fps, MPEG-4 AVC ~2 569 kbps avg
Аудио: 48 kHz, AC3 Dolby Digital, 2/0 (L,R) ch, ~384 kbps
Дата премьеры (мир): 10 октября 2015
Дата премьеры (РФ): 8 сентября 2016, «Cinema Prestige»

General
Unique ID : 195553653110745141617378959837778980750 (0x931E437CFED873BD94E38CF57A18AF8E)
Complete name : Gamba.3D.2015.D.720p.WEB-DL.Rustorrents.mkv
Format : Matroska
Format version : Version 2
File size : 1.85 GiB
Duration : 1h 29mn
Overall bit rate : 2 944 Kbps
Movie name : rustorrents.info
Encoded date : UTC 2016-10-26 08:34:55
Writing application : mkvmerge v5.8.0 ('No Sleep / Pillow') built on Sep 2 2012 15:37:04
Writing library : libebml v1.2.3 + libmatroska v1.3.0
Video #1
ID : 1
Format : AVC
Format/Info : Advanced Video Codec
Format profile : High@L4.0
Format settings, CABAC : Yes
Format settings, ReFrames : 4 frames
Muxing mode : Header stripping
Codec ID : V_MPEG4/ISO/AVC
Duration : 1h 29mn
Bit rate : 2 569 Kbps
Width : 1 280 pixels
Height : 536 pixels
Display aspect ratio : 2.40:1
Frame rate mode : Constant
Frame rate : 25.000 fps
Color space : YUV
Chroma subsampling : 4:2:0
Bit depth : 8 bits
Scan type : Progressive
Bits/(Pixel*Frame) : 0.150
Stream size : 1.57 GiB (85%)
Title : rustorrents.info
Writing library : x264 core 142
Encoding settings : cabac=1 / ref=3 / deblock=1:0:0 / analyse=0x3:0x113 / me=hex / subme=7 / psy=1 / psy_rd=1.00:0.00 / mixed_ref=1 / me_range=16 / chroma_me=1 / trellis=1 / 8x8dct=1 / cqm=0 / deadzone=21,11 / fast_pskip=1 / chroma_qp_offset=-2 / threads=36 / lookahead_threads=4 / sliced_threads=0 / nr=0 / decimate=1 / interlaced=0 / bluray_compat=0 / constrained_intra=0 / bframes=6 / b_pyramid=2 / b_adapt=1 / b_bias=0 / direct=1 / weightb=1 / open_gop=0 / weightp=2 / keyint=200 / keyint_min=20 / scenecut=0 / intra_refresh=0 / rc_lookahead=40 / rc=2pass / mbtree=1 / bitrate=2569 / ratetol=1.0 / qcomp=0.60 / qpmin=0 / qpmax=69 / qpstep=4 / cplxblur=20.0 / qblur=0.5 / vbv_maxrate=3854 / vbv_bufsize=10279 / nal_hrd=none / filler=0 / ip_ratio=1.40 / aq=1:1.00
Language : Russian
Default : Yes
Forced : Yes
Audio #2
ID : 2
Format : AC-3
Format/Info : Audio Coding 3
Mode extension : CM (complete main)
Format settings, Endianness : Big
Muxing mode : Header stripping
Codec ID : A_AC3
Duration : 1h 29mn
Bit rate mode : Constant
Bit rate : 384 Kbps
Channel(s) : 2 channels
Channel positions : Front: L R
Sampling rate : 48.0 KHz
Bit depth : 16 bits
Compression mode : Lossy
Stream size : 247 MiB (13%)
Title : rustorrents.info
Language : Russian
Default : Yes
Forced : Yes




реклама партнёра


Вернуться к началу
 Профиль Отправить личное сообщение  
 
   Похожие торренты   Автор   Торрент   Размер 
В этой теме нет новых непрочитанных сообщений. Отважный рыцарь / Der kleine Ritter Trenk [Мультфильм, приключения, семейный, 2015] HDRip, Dub [Line]

salma3

546 | 61

699.52 МБ

В этой теме нет новых непрочитанных сообщений. Барашек Шон / Shaun the Sheep Movie (Марк Бертон) [Приключения, Семейный, Комедия, Мультфильм, 2015] WEB-DLRip 720p, Dub [iTunes]

Dracon

1 | 1

2.54 ГБ

В этой теме нет новых непрочитанных сообщений. Рыбки / Fishtales [мультфильм, 2016] WEB-DLRip, Dub [Line]

salma3

842 | 54

1.37 ГБ

В этой теме нет новых непрочитанных сообщений. Полярные приключения / Polar Adventure [Мультфильм, комедия, приключения, семейный, 2015] WEB-DLRip, dUB [iTunes]

salma3

217 | 74

1.46 ГБ

В этой теме нет новых непрочитанных сообщений. Полярные приключения / Polar Adventure [Мультфильм, комедия, приключения, семейный, 2015] WEB-DLRip, dUB [iTunes]

salma3

176 | 17

744.81 МБ

В этой теме нет новых непрочитанных сообщений. Логин / Login [триллер, 2015] WEB-DLRip, Mvo [Line]

salma3

189 | 151

1.37 ГБ

В этой теме нет новых непрочитанных сообщений. Где дракон? / Long zai na li [Мультфильм, приключения, 2015] WEB- DLRip, Dub

salma3

103 | 17

1.17 ГБ


Начать новую тему Ответить на тему  [ 1 сообщение ] 




Для Мосгорсуда, Роскомнадзора и рекламодателей:: mosgorsud-torrent[собачка]yandex.ru