Торрент файл
скачать торрент магнет ссылка Добавлен: 04 ноя 2016, 02:13
Размер: 2.5 ГБ
Сидеров: 0
Личеров: 0
Автор

СообщениеДобавлено: 04 ноя 2016, 02:13 

Не в сети
Дата регистрации:
28 сен 2016, 18:10
Спасибо: 62 / 0
Сообщения: 1040
Л.О.Р.Д. Легенда о разорении династий / L.O.R.D: Legend of Ravaging Dynasties
Год выпуска: 2016
Страна: Китай
Жанр: драма, боевик, фэнтези
Продолжительность: 01:52:58
Перевод: Любительский (двухголосый закадровый)
Русские субтитры: есть
Cубтитры: китайский/английский хардсаб
Режиссер: Го Цзин Мин / Guo Jing Ming
В ролях: Уильям Чань, Янь И Куань, Эмбер Куо, Чени Чэнь, Ян Ми, Аариф Рахман, Линь Юнь, Рой Ван, Фань Бин Бин, У И Фань, Ван До
Описание: Фантастическая история об одном из четырех магических королевств в царстве Одина. В каждом королевстве есть семь высокопоставленных алхимиков, которые борются между собой за власть.
Релиз группы:
Доп. информация: Перевод осуществляли команды фансаб-группы "COMEBACK" и фансаб-группы "White & Black"
Перевод,редакция, тайминг,оформление: Thel, Makc MiRa, AiDana, Creepy Joe, R.R., TUMARU, Nyman
Озвучивание: Ворон и Wenlana
Прежде чем качать видео и комментировать, скачайте сэмпл и послушайте!
Качество: TC-720p - Сэмпл
Формат видео: mkv
Видео: 1280x648 (1,975:1), 23,976 fps, x264 ~2800 kbps avg, 0.141 bit/pixel
Аудио: 48 kHz, AC3 Dolby Digital, 2/0 (L,R) ch, ~192 kbps (Русский)
Аудио: 48 kHz, AC3 Dolby Digital, 2/0 (L,R) ch, ~192 kbps (Китайский)
Формат субтитров: [форсированный(надписи) / полные]softsub (ass)


Dialogue: 0,0:05:16.35,0:05:17.53,Default,,0,0,0,,Смотри куда прёшь!
Dialogue: 0,0:05:23.36,0:05:27.59,Default,,0,0,0,,Эй, мальчик, как ты смеешь оскорблять Жреца?
Dialogue: 0,0:05:28.41,0:05:30.43,Default,,0,0,0,,Жрец, не обижайтесь.
Dialogue: 0,0:05:30.53,0:05:33.15,Default,,0,0,0,,Нас же благословляют боги.
Dialogue: 0,0:05:43.26,0:05:44.13,Default,,0,0,0,,Моя госпожа,
Dialogue: 0,0:05:44.26,0:05:45.34,Default,,0,0,0,,я ведь вам говорил,
Dialogue: 0,0:05:45.51,0:05:46.80,Default,,0,0,0,,зимой не бывает туристов.
Dialogue: 0,0:05:46.97,0:05:49.84,Default,,0,0,0,,Со вчерашнего дня мы даже не видели мух.
Dialogue: 0,0:05:50.10,0:05:51.97,Default,,0,0,0,,И вы заставили меня купить столько всего,
Dialogue: 0,0:05:53.64,0:05:55.06,Default,,0,0,0,,чтобы дать на корм свиньям?
Dialogue: 0,0:05:59.81,0:06:01.15,Default,,0,0,0,,Пожалуйста, наслаждайтесь чаем.
Dialogue: 0,0:06:01.32,0:06:02.40,Default,,0,0,0,,Пожалуйста.
Dialogue: 0,0:06:06.28,0:06:08.74,Default,,0,0,0,,Что это за сорт чая? У него очень хороший вкус.
Dialogue: 0,0:06:12.12,0:06:13.00,Default,,0,0,0,,Это...
Dialogue: 0,0:06:13.20,0:06:16.12,Default,,0,0,0,,Это черный чай из Фузы.
Dialogue: 0,0:06:19.08,0:06:20.12,Default,,0,0,0,,Простите меня...
Dialogue: 0,0:06:20.83,0:06:22.96,Default,,0,0,0,,Вы... маг?
Dialogue: 0,0:06:23.55,0:06:24.88,Default,,0,0,0,,Как вы догадались?
Dialogue: 0,0:06:24.92,0:06:26.76,Default,,0,0,0,,Ваш внешний вид вас выдал.
Dialogue: 0,0:06:26.88,0:06:30.34,Default,,0,0,0,,Никто в этом маленьком городе не одевается подобно вам.
Dialogue: 0,0:06:34.81,0:06:36.72,Default,,0,0,0,,Мы пришли из Гленорта, столицы.
Dialogue: 0,0:06:36.98,0:06:39.48,Default,,0,0,0,,Парень, что там сидит мой брат Шен Си.
Dialogue: 0,0:06:40.69,0:06:41.85,Default,,0,0,0,,А я Шен Инь.
Dialogue: 0,0:06:46.19,0:06:48.11,Default,,0,0,0,,Ваш брат Алхимик?
Dialogue: 0,0:06:48.95,0:06:49.86,Default,,0,0,0,,Откуда?
Dialogue: 0,0:06:49.99,0:06:51.95,Default,,0,0,0,,Всего по стране насчитывается семь Алхимиков.
Dialogue: 0,0:06:52.12,0:06:53.74,Default,,0,0,0,,Не просто будет их увидеть тебе.
Dialogue: 0,0:06:54.24,0:06:56.20,Default,,0,0,0,,У Алхимиков есть ранг с Первого по Седьмой.
Dialogue: 0,0:06:56.45,0:06:58.50,Default,,0,0,0,,Чем выше уровень, тем больше душевная сила.
Dialogue: 0,0:07:00.29,0:07:00.94,Default,,0,0,0,,Ничего себе!
Dialogue: 0,0:07:01.17,0:07:02.33,Default,,0,0,0,,Удивительно!
Dialogue: 0,0:07:03.59,0:07:04.67,Default,,0,0,0,,Кстати,
Dialogue: 0,0:07:05.00,0:07:07.38,Default,,0,0,0,,что вы все здесь делаете?
Dialogue: 0,0:07:08.13,0:07:10.09,Default,,0,0,0,,Я здесь чтобы помочь брату,
Dialogue: 0,0:07:10.55,0:07:12.30,Default,,0,0,0,,поймать Духовного Зверя, Ледяного Ракона.
Dialogue: 0,0:07:12.76,0:07:13.68,Default,,0,0,0,,Духовного зверя?

Формат : Matroska
Версия формата : Version 4 / Version 2
Размер файла : 2,50 Гбайт
Продолжительность : 1 ч. 52 м.
Общий поток : 3170 Кбит/сек
Дата кодирования : UTC 2016-10-26 00:07:40
Программа кодирования : mkvmerge v8.2.0 ('World of Adventure') 32bit
Библиотека кодирования : libebml v1.3.1 + libmatroska v1.4.2
Attachments : FRABK.TTF / REWI_M.TTF / REWI_MI.TTF
Видео
Идентификатор : 1
Формат : AVC
Формат/Информация : Advanced Video Codec
Профиль формата : High@L4.1
Параметр CABAC формата : Да
Параметр ReFrames формата : 5 кадров
Идентификатор кодека : V_MPEG4/ISO/AVC
Продолжительность : 1 ч. 52 м.
Битрейт : 2800 Кбит/сек
Ширина : 1280 пикселей
Высота : 648 пикселей
Соотношение сторон : 1,975
Режим частоты кадров : Постоянный
Частота кадров : 23,976 (24000/1001) кадра/сек
Цветовое пространство : YUV
Субдискретизация насыщенности : 4:2:0
Битовая глубина : 8 бит
Тип развёртки : Прогрессивная
Бит/(Пиксели*Кадры) : 0.141
Размер потока : 2,20 Гбайт (88%)
Библиотека кодирования : x264 core 142 r2431+42 c69a006 tMod [8-bit@all X86_64]
Настройки программы : cabac=1 / ref=5 / deblock=1:-2:-2 / analyse=0x3:0x133 / me=umh / subme=7 / psy=1 / fade_compensate=0.00 / psy_rd=1.10:0.00 / mixed_ref=1 / me_range=16 / chroma_me=1 / trellis=1 / 8x8dct=1 / cqm=0 / deadzone=21,11 / fast_pskip=0 / chroma_qp_offset=-2 / threads=24 / lookahead_threads=4 / sliced_threads=0 / nr=0 / decimate=0 / interlaced=0 / bluray_compat=0 / constrained_intra=0 / fgo=0 / bframes=3 / b_pyramid=2 / b_adapt=2 / b_bias=0 / direct=3 / weightb=1 / open_gop=0 / weightp=2 / keyint=240 / keyint_min=24 / scenecut=40 / intra_refresh=0 / rc_lookahead=120 / rc=abr / mbtree=1 / bitrate=2800 / ratetol=1.0 / qcomp=0.70 / qpmin=0:0:0 / qpmax=69:69:69 / qpstep=4 / ip_ratio=1.10 / aq=1:0.90 / aq-sensitivity=10.00 / aq-factor=1.00:1.00:1.00 / aq2=0 / aq3=0
Default : Да
Forced : Нет
Аудио #1
Идентификатор : 2
Формат : AC-3
Формат/Информация : Audio Coding 3
Расширение режима : CM (complete main)
Параметр Endianness формата : Big
Идентификатор кодека : A_AC3
Продолжительность : 1 ч. 52 м.
Вид битрейта : Постоянный
Битрейт : 192 Кбит/сек
Каналы : 2 канала
Расположение каналов : Front: L R
Частота : 48,0 КГц
Частота кадров : 31,250 кадров/сек (1536 spf)
Метод сжатия : С потерями
Размер потока : 155 Мбайт (6%)
Заголовок : Ворон и Wenlana
Язык : Russian
Default : Да
Forced : Нет
Аудио #2
Идентификатор : 3
Формат : AC-3
Формат/Информация : Audio Coding 3
Расширение режима : CM (complete main)
Параметр Endianness формата : Big
Идентификатор кодека : A_AC3
Продолжительность : 1 ч. 52 м.
Вид битрейта : Постоянный
Битрейт : 192 Кбит/сек
Каналы : 2 канала
Расположение каналов : Front: L R
Частота : 48,0 КГц
Частота кадров : 31,250 кадров/сек (1536 spf)
Метод сжатия : С потерями
Размер потока : 155 Мбайт (6%)
Заголовок : Original
Язык : Chinese
Default : Нет
Forced : Нет
Текст #1
Идентификатор : 4
Формат : ASS
Идентификатор кодека : S_TEXT/ASS
Идентификатор кодека/Информация : Advanced Sub Station Alpha
Продолжительность : 8 м. 35 с.
Битрейт : 6 бит/сек
Count of elements : 3
Метод сжатия : Без потерь
Размер потока : 392 байт (0%)
Заголовок : форсированный(надписи)
Язык : Russian
Default : Да
Forced : Да
Текст #2
Идентификатор : 5
Формат : ASS
Идентификатор кодека : S_TEXT/ASS
Идентификатор кодека/Информация : Advanced Sub Station Alpha
Продолжительность : 1 ч. 52 м.
Битрейт : 78 бит/сек
Count of elements : 957
Метод сжатия : Без потерь
Размер потока : 64,6 Кбайт (0%)
Заголовок : Перевод: фансаб-групп COMEBACK и White & Black
Язык : Russian
Default : Нет
Forced : Нет




реклама партнёра


Вернуться к началу
 Профиль Отправить личное сообщение  
 
   Похожие торренты   Автор   Торрент   Размер 
В этой теме нет новых непрочитанных сообщений. Л.О.Р.Д. Легенда о разорении династий / L.O.R.D: Legend of Ravaging Dynasties (драма, боевик, фэнтези, 2016) TC-AVC от Batafurai Team и SOUND-GROUP | L2

marya111

0 | 0

1.47 ГБ

В этой теме нет новых непрочитанных сообщений. Лига Богов / League of Gods (фэнтези, исторический, 2016) 2160p WEB-DL от Batafurai Team и SOUND-GROUP | L2

marya111

0 | 0

5.07 ГБ

В этой теме нет новых непрочитанных сообщений. Телохранитель / The bodyguard (боевик, экшн, 2016) HDRip-AVC от Batafurai Team и SOUND-GROUP | L2

marya111

1470 | 59

1.47 ГБ

В этой теме нет новых непрочитанных сообщений. Тарзан. Легенда / The Legend of Tarzan [Боевик, приключения, 2016] WEB-DL 720p, Dub [iTunes]

salma3

609 | 22

3.59 ГБ

В этой теме нет новых непрочитанных сообщений. Тарзан. Легенда / The Legend of Tarzan ( Боевик, драма, мелодрама, приключения, 2016) Blu-Ray 1080p | 3D-Video | Лицензия

marya111

0 | 0

35.73 ГБ

В этой теме нет новых непрочитанных сообщений. Тарзан. Легенда / The Legend of Tarzan [боевик, драма, мелодрама, приключения, 2016] BDRip 1080p, Dub [iTunes]

marya111

755 | 76

7.46 ГБ

В этой теме нет новых непрочитанных сообщений. Тарзан. Легенда / The Legend of Tarzan ( боевик, драма, мелодрама, приключения, 2016) BDRip-AVC от HELLYWOOD | Лицензия

marya111

631 | 29

2.18 ГБ


Начать новую тему Ответить на тему  [ 1 сообщение ] 




Для Мосгорсуда, Роскомнадзора и рекламодателей:: mosgorsud-torrent[собачка]yandex.ru