Торрент файл
скачать торрент магнет ссылка Добавлен: 04 ноя 2016, 02:13
Размер: 19.36 ГБ
Сидеров: 95
Личеров: 11
Автор

СообщениеДобавлено: 04 ноя 2016, 02:13 

Не в сети
Дата регистрации:
28 сен 2016, 18:10
Спасибо: 55 / 0
Сообщения: 942
Информация о фильме
Название: В поисках Дори
Оригинальное название: Finding Dory
Год выхода: 2016
Жанр: Мультфильм, комедия, приключения, семейный
Режиссер: Эндрю Стэнтон, Энгус МакЛэйн
В ролях: Эллен ДеДженерес, Альберт Брукс, Эд О’Нил, Кэйтлин Олсон, Хайден Роуленс, Тай Буррелл, Дайан Китон, Юджин Леви, Слоун Мюррэй, Идрис Эльба
О фильме:
Дори — синяя доброжелательная рыбка-хирург, страдающая провалами в памяти. Она упорно стремится избавиться от своего недуга и найти свою семью.

Страна: США
Студия: Pixar Animation Studios, Walt Disney Pictures
Продолжительность: 01:37:02
Перевод: Дублированный | iTunes
Файл
Кодек: MPEG-4
Качество: BDRemux 1080p
Видео: 1920x1080, 23.6 Mbit/s, 23.976 fps
Звук:
Аудио #01: 48 kHz, AC3, 5.1, 384 Kbps | Дублированный | iTunes |
Аудио #02: 48 kHz, DTS-HD MA, 7.1, 4527 kbps | Оригинал |
Субтитры: Русские, английские
General
Unique ID : 237576786389385428608547640165921260016 (0xB2BB9FEC547FA59C9760ACC63C7901F0)
Complete name : H:VideoFinding.Dory.2016.D.BDREMUX.1080p.ExKinoRay.mkv
Format : Matroska
Format version : Version 4 / Version 2
File size : 19.4 GiB
Duration : 1 h 37 min
Overall bit rate mode : Variable
Overall bit rate : 28.6 Mb/s
Movie name : build by ***селезень***
Encoded date : UTC 2016-10-26 19:06:48
Writing application : mkvmerge v8.3.0 ('Over the Horizon') 64bit
Writing library : libebml v1.3.1 + libmatroska v1.4.2
Video
ID : 1
Format : AVC
Format/Info : Advanced Video Codec
Format profile : High@L4.1
Format settings, CABAC : Yes
Format settings, ReFrames : 4 frames
Format settings, GOP : M=1, N=12
Codec ID : V_MPEG4/ISO/AVC
Duration : 1 h 37 min
Bit rate mode : Variable
Bit rate : 23.6 Mb/s
Maximum bit rate : 32.0 Mb/s
Width : 1 920 pixels
Height : 1 080 pixels
Display aspect ratio : 16:9
Frame rate mode : Constant
Frame rate : 23.976 (23976/1000) FPS
Original frame rate : 23.976 (24000/1001) FPS
Color space : YUV
Chroma subsampling : 4:2:0
Bit depth : 8 bits
Scan type : Progressive
Bits/(Pixel*Frame) : 0.475
Stream size : 16.0 GiB (83%)
Title : build by ***селезень***
Language : English
Default : Yes
Forced : No
Audio #1
ID : 2
Format : AC-3
Format/Info : Audio Coding 3
Mode extension : CM (complete main)
Format settings, Endianness : Big
Codec ID : A_AC3
Duration : 1 h 37 min
Bit rate mode : Constant
Bit rate : 384 kb/s
Channel(s) : 6 channels
Channel positions : Front: L C R, Side: L R, LFE
Sampling rate : 48.0 kHz
Frame rate : 31.250 FPS (1536 spf)
Compression mode : Lossy
Stream size : 267 MiB (1%)
Title : iTunes
Language : Russian
Default : Yes
Forced : No
Audio #2
ID : 3
Format : DTS
Format/Info : Digital Theater Systems
Format profile : MA / Core
Mode : 16
Format settings, Endianness : Big
Codec ID : A_DTS
Duration : 1 h 37 min
Bit rate mode : Variable / Constant
Bit rate : 4 527 kb/s / 1 509 kb/s
Channel(s) : 8 channels / 6 channels
Channel positions : Front: L C R, Side: L R, Back: L R, LFE / Front: L C R, Side: L R, LFE
Sampling rate : 48.0 kHz
Frame rate : 93.750 FPS (512 spf)
Bit depth : 24 bits
Compression mode : Lossless / Lossy
Stream size : 3.07 GiB (16%)
Title : Original
Language : English
Default : No
Forced : No
Text #1
ID : 4
Format : UTF-8
Codec ID : S_TEXT/UTF8
Codec ID/Info : UTF-8 Plain Text
Duration : 1 h 35 min
Bit rate : 127 b/s
Count of elements : 1469
Stream size : 89.0 KiB (0%)
Title : Full
Language : Russian
Default : No
Forced : No
Text #2
ID : 5
Format : UTF-8
Codec ID : S_TEXT/UTF8
Codec ID/Info : UTF-8 Plain Text
Duration : 1 h 35 min
Bit rate : 85 b/s
Count of elements : 1578
Stream size : 59.3 KiB (0%)
Title : Full
Language : English
Default : No
Forced : No
Text #3
ID : 6
Format : UTF-8
Codec ID : S_TEXT/UTF8
Codec ID/Info : UTF-8 Plain Text
Duration : 1 h 35 min
Bit rate : 92 b/s
Count of elements : 1764
Stream size : 64.6 KiB (0%)
Title : SDH
Language : English
Default : No
Forced : No
Menu
00:00:00.000 : en:00:00:00.000
00:02:35.739 : en:00:02:35.739
00:06:50.243 : en:00:06:50.243
00:10:53.194 : en:00:10:53.194
00:13:33.187 : en:00:13:33.187
00:15:25.132 : en:00:15:25.132
00:17:03.314 : en:00:17:03.314
00:19:35.466 : en:00:19:35.466
00:21:35.294 : en:00:21:35.294
00:24:58.705 : en:00:24:58.705
00:27:08.543 : en:00:27:08.543
00:30:33.206 : en:00:30:33.206
00:35:00.265 : en:00:35:00.265
00:37:52.020 : en:00:37:52.020
00:40:17.999 : en:00:40:17.999
00:41:06.672 : en:00:41:06.672
00:42:30.423 : en:00:42:30.423
00:46:03.427 : en:00:46:03.427
00:48:41.710 : en:00:48:41.710
00:50:27.858 : en:00:50:27.858
00:55:06.678 : en:00:55:06.678
00:57:05.839 : en:00:57:05.839
01:00:41.346 : en:01:00:41.346
01:04:32.952 : en:01:04:32.952
01:10:36.816 : en:01:10:36.816
01:12:28.302 : en:01:12:28.302
01:14:09.862 : en:01:14:09.862
01:18:26.493 : en:01:18:26.493
01:26:49.329 : en:01:26:49.329


Релиз от: Автор релиза:




реклама партнёра


Вернуться к началу
 Профиль Отправить личное сообщение  
 
   Похожие торренты   Автор   Торрент   Размер 
В этой теме нет новых непрочитанных сообщений. В поисках Дори / Finding Dory (Мультфильм, комедия, приключения, семейный, 2016) WEB-DLRip | iTunes

marya111

0 | 0

745.54 МБ

В этой теме нет новых непрочитанных сообщений. В поисках Дори / Finding Dory (Мультфильм, комедия, приключения, семейный, 2016) BDRip 720p | iTunes

marya111

290 | 15

2.74 ГБ

В этой теме нет новых непрочитанных сообщений. В поисках Дори / Finding Dory (мультфильм, комедия, приключения, семейный, 2016) WEB-DLRip от Scarabey | iTunes

marya111

223 | 14

745.52 МБ

В этой теме нет новых непрочитанных сообщений. В поисках Дори / Finding Dory (мультфильм, комедия, приключения, семейный, 2016) WEB-DLRip от Scarabey | iTunes

marya111

0 | 0

1.4 ГБ

В этой теме нет новых непрочитанных сообщений. В поисках Дори / Finding Dory ( мультфильм, комедия, приключения, семейный, 2016) BDRip-AVC от HELLYWOOD | iTunes

marya111

214 | 10

1.46 ГБ

В этой теме нет новых непрочитанных сообщений. В поисках Дори / Finding Dory (мультфильм, комедия, приключения, семейный, 2016) BDRip 1080p | Лицензия

marya111

107 | 9

12.46 ГБ

В этой теме нет новых непрочитанных сообщений. В поисках Дори / Finding Dory [мультфильм, комедия, приключения, семейный, 2016] BDRip 1080p, Dub [3D-Video] [Лицензия]

salma3

146 | 82

10.39 ГБ


Начать новую тему Ответить на тему  [ 1 сообщение ] 




Для Мосгорсуда, Роскомнадзора и рекламодателей:: mosgorsud-torrent[собачка]yandex.ru