Торрент файл
скачать торрент магнет ссылка Добавлен: 04 ноя 2016, 02:13
Размер: 1.37 ГБ
Сидеров: 0
Личеров: 0
Автор

СообщениеДобавлено: 04 ноя 2016, 02:13 

Не в сети
Дата регистрации:
28 сен 2016, 18:10
Спасибо: 55 / 0
Сообщения: 942
Информация о фильме
Название: Полный расколбас
Оригинальное название: Sausage Party
Год выпуска: 2016
Страна: США
Жанр: мультфильм, фэнтези, комедия, приключения

Перевод: Дубляж - [iTunes]
Продолжительность: 01:28:45

Режиссер: Грег Тирнан , Конрад Вернон
В ролях: Сет Роген (Frank / Sergeant Pepper, озвучка), Кристен Уиг (Brenda, озвучка), Джона Хилл (Carl, озвучка), Билл Хейдер (Firewater / Tequila / El Guaco, озвучка), Майкл Сера (Barry, озвучка), Джеймс Франко (Druggie, озвучка), Дэнни МакБрайд (Honey Mustard, озвучка), Крэйг Робинсон (Grits, озвучка), Пол Радд (Darren, озвучка), Ник Кролл (Douche, озвучка), Дэвид Крамхолц (Lavash, озвучка), Эдвард Нортон (Sammy, озвучка)


Описание:
Первая анимационная комедия для взрослых о невероятных приключениях еды из супермаркета. Съедобным друзьям предстоит получить ответ на главный вопрос: есть ли жизнь за стенами супермаркета, и что же происходит с продуктами после того, как они попадают к людям домой?

Рейтинг:

MPAA: R - Лицам до 17 лет обязательно присутствие взрослого

Качество: BDRip-AVC
Формат: MKV
Видео: AVC, 1024x552 (1.85:1), 1817 kbps, 23,976 fps, 0,134 bpp
Аудио: русский / AC3 / 5.1 / 48 kHz / 384 kbps / |iTunes|
Сэмпл


Релиз от: by


General
Unique ID : 241335997174912775785635778061744401104 (0xB58F9F5319E01B36917AB5151646EAD0)
Complete name : E:Sausage.Party.2016.BDRip-AVC.Rip.by.White Smoke.R.G.Resident.mkv
Format : Matroska
Format version : Version 4 / Version 2
File size : 1.37 GiB
Duration : 1 h 28 min
Overall bit rate : 2 202 kb/s
Movie name : Sausage.Party.2016.BDRip-AVC.Rip.by.White Smoke.R.G.Resident.mkv
Encoded date : UTC 2016-10-25 07:11:02
Writing application : mkvmerge v6.8.0 ('Theme for Great Cities') 64bit built on Mar 2 2014 21:34:26
Writing library : libebml v1.3.0 + libmatroska v1.4.1
Video
ID : 1
Format : AVC
Format/Info : Advanced Video Codec
Format profile : High@L4.1
Format settings, CABAC : Yes
Format settings, ReFrames : 12 frames
Codec ID : V_MPEG4/ISO/AVC
Duration : 1 h 28 min
Bit rate : 1 817 kb/s
Width : 1 024 pixels
Height : 552 pixels
Display aspect ratio : 1.85:1
Frame rate mode : Constant
Frame rate : 23.976 (24000/1001) FPS
Color space : YUV
Chroma subsampling : 4:2:0
Bit depth : 8 bits
Scan type : Progressive
Bits/(Pixel*Frame) : 0.134
Stream size : 1.10 GiB (81%)
Writing library : x264 core 148 r2638 7599210
Encoding settings : cabac=1 / ref=12 / deblock=1:-3:-3 / analyse=0x3:0x113 / me=umh / subme=11 / psy=1 / psy_rd=1.00:0.00 / mixed_ref=1 / me_range=32 / chroma_me=1 / trellis=2 / 8x8dct=1 / cqm=0 / deadzone=21,11 / fast_pskip=1 / chroma_qp_offset=-2 / threads=12 / lookahead_threads=3 / sliced_threads=0 / nr=0 / decimate=1 / interlaced=0 / bluray_compat=0 / constrained_intra=0 / bframes=12 / b_pyramid=2 / b_adapt=2 / b_bias=12 / direct=1 / weightb=0 / open_gop=0 / weightp=2 / keyint=240 / keyint_min=23 / scenecut=40 / intra_refresh=0 / rc_lookahead=40 / rc=2pass / mbtree=1 / bitrate=1817 / ratetol=1.0 / qcomp=0.85 / qpmin=0 / qpmax=69 / qpstep=4 / cplxblur=20.0 / qblur=0.5 / ip_ratio=1.40 / aq=1:1.00
Language : English
Default : Yes
Forced : No
Audio
ID : 2
Format : AC-3
Format/Info : Audio Coding 3
Mode extension : CM (complete main)
Format settings, Endianness : Big
Codec ID : A_AC3
Duration : 1 h 28 min
Bit rate mode : Constant
Bit rate : 384 kb/s
Channel(s) : 6 channels
Channel positions : Front: L C R, Side: L R, LFE
Sampling rate : 48.0 kHz
Frame rate : 31.250 FPS (1536 spf)
Compression mode : Lossy
Delay relative to video : 960 ms
Stream size : 244 MiB (17%)
Title : iTunes
Language : Russian
Default : Yes
Forced : No




реклама партнёра


Вернуться к началу
 Профиль Отправить личное сообщение  
 
   Похожие торренты   Автор   Торрент   Размер 
В этой теме нет новых непрочитанных сообщений. Полный расколбас / Sausage Party (мультфильм, фэнтези, комедия, приключения, 2016) BDRip от ExKinoRay | iTunes

marya111

0 | 0

1.46 ГБ

В этой теме нет новых непрочитанных сообщений. Полный расколбас / Sausage Party (фэнтези, комедия, приключения, 2016) BDRip 1080p от New-Team & qqss44 | iTunes

marya111

0 | 0

5.65 ГБ

В этой теме нет новых непрочитанных сообщений. Полный расколбас / Sausage Party [мультфильм, фэнтези, комедия, 2016] BDRip, Dub [Лицензия]

salma3

0 | 0

1.46 ГБ

В этой теме нет новых непрочитанных сообщений. Полный расколбас / Sausage Party (Мультфильм для взрослых, фэнтези, комедия, приключения, полнометражный, 2016) BDRemux 1080p от ExKinoRay | iTunes

marya111

0 | 0

17.3 ГБ

В этой теме нет новых непрочитанных сообщений. Полный расколбас / Sausage Party (Мультфильм для взрослых, фэнтези, комедия, приключения, полнометражный, 2016) BDRemux 1080p от ExKinoRay | iTunes

marya111

0 | 0

17.14 ГБ

В этой теме нет новых непрочитанных сообщений. Полный расколбас / Sausage Party (мультфильм, фэнтези, комедия, приключения, 2016) BDRip 720p от NNNB | D, A

marya111

0 | 0

4.37 ГБ

В этой теме нет новых непрочитанных сообщений. Полный расколбас / Sausage Party (мультфильм, фэнтези, комедия, приключения, 2016) BDRip от HQCLUB | D | Лицензия

marya111

0 | 0

1.45 ГБ


Начать новую тему Ответить на тему  [ 1 сообщение ] 




Для Мосгорсуда, Роскомнадзора и рекламодателей:: mosgorsud-torrent[собачка]yandex.ru