Торрент файл
скачать торрент магнет ссылка Добавлен: 04 ноя 2016, 02:13
Размер: 745.54 МБ
Сидеров: 0
Личеров: 0
Автор

СообщениеДобавлено: 04 ноя 2016, 02:13 

Не в сети
Дата регистрации:
28 сен 2016, 18:10
Спасибо: 54 / 0
Сообщения: 942
Информация о фильме
Название: В поисках Дори
Оригинальное название: Finding Dory
Год выхода: 2016
Жанр: Мультфильм, комедия, приключения, семейный
Режиссер: Эндрю Стэнтон, Энгус МакЛэйн
Роли озвучивают: Эллен ДеДженерес, Альберт Брукс, Эд О’Нил, Кэйтлин Олсон, Хайден Роуленс, Тай Буррелл, Дайан Китон, Юджин Леви, Слоун Мюррэй, Идрис Эльба
О фильме:
Дори — синяя доброжелательная рыбка-хирург, страдающая провалами в памяти. Она упорно стремится избавиться от своего недуга и найти свою семью.

Страна: США
Студия: Pixar Animation Studios, Walt Disney Pictures
Продолжительность: 01:37:03
Перевод: Профессиональный (полное дублирование)[iTunes]
Файл
Качество: WEB-DLRip | Локализованный русский видеоряд
Формат: AVI
Кодек: XviD
Видео: 656x368 (16:9), 23,976 fps, XviD ~937 kbps avg, 0.162 bit/pixel
Аудио: MP3, 48 kHz, 2 ch, ~128.00 kbps avg | русский | Профессиональный (полное дублирование)[iTunes]
Субтитры: Отсутствуют
Семпл
Общее
Полное имя : Finding.Dory.2016.D.WEB-DLRip.745Mb.avi
Формат : AVI
Формат/Информация : Audio Video Interleave
Размер файла : 746 Мбайт
Продолжительность : 1 ч. 37 м.
Общий поток : 1074 Кбит/сек
Программа кодирования : VirtualDubMod 1.5.10.3 (build 2550/release)
Библиотека кодирования : VirtualDubMod build 2550/release
Видео
Идентификатор : 0
Формат : MPEG-4 Visual
Профиль формата : Advanced Simple@L5
Параметр BVOP формата : 2
Параметр QPel формата : Нет
Параметр GMC формата : Без точки перехода
Параметр матрицы формата : Выборочная
Идентификатор кодека : XVID
Идентификатор кодека/Подсказка : XviD
Продолжительность : 1 ч. 37 м.
Битрейт : 937 Кбит/сек
Ширина : 656 пикселей
Высота : 368 пикселей
Соотношение сторон : 16:9
Частота кадров : 23,976 кадра/сек
Цветовое пространство : YUV
Субдискретизация насыщенности : 4:2:0
Битовая глубина : 8 бит
Тип развёртки : Прогрессивная
Метод сжатия : С потерями
Бит/(Пиксели*Кадры) : 0.162
Размер потока : 650 Мбайт (87%)
Библиотека кодирования : XviD 73
Аудио
Идентификатор : 1
Формат : MPEG Audio
Версия формата : Version 1
Профиль формата : Layer 3
Режим : Joint stereo
Расширение режима : MS Stereo
Идентификатор кодека : 55
Идентификатор кодека/Подсказка : MP3
Продолжительность : 1 ч. 37 м.
Вид битрейта : Постоянный
Битрейт : 128 Кбит/сек
Каналы : 2 канала
Частота : 48,0 КГц
Метод сжатия : С потерями
Размер потока : 88,8 Мбайт (12%)
Выравнивание : Соединение по промежуткам
Продолжительность промежутка : 42 мс. (1,00 видеокадр)
Время предзагрузки промежутка : 504 мс.
Библиотека кодирования : LAME3.97




реклама партнёра


Вернуться к началу
 Профиль Отправить личное сообщение  
 
   Похожие торренты   Автор   Торрент   Размер 
В этой теме нет новых непрочитанных сообщений. В поисках Дори / Finding Dory (мультфильм, комедия, приключения, семейный, 2016) WEB-DLRip от Scarabey | iTunes

marya111

223 | 14

745.52 МБ

В этой теме нет новых непрочитанных сообщений. В поисках Дори / Finding Dory (мультфильм, комедия, приключения, семейный, 2016) WEB-DLRip от Scarabey | iTunes

marya111

0 | 0

1.4 ГБ

В этой теме нет новых непрочитанных сообщений. В поисках Дори / Finding Dory ( мультфильм, комедия, приключения, семейный, 2016) BDRip-AVC от HELLYWOOD | iTunes

marya111

214 | 10

1.46 ГБ

В этой теме нет новых непрочитанных сообщений. В поисках Дори / Finding Dory (Мультфильм, комедия, приключения, семейный, 2016) BDRip 720p | iTunes

marya111

289 | 15

2.74 ГБ

В этой теме нет новых непрочитанных сообщений. В поисках Дори / Finding Dory ( Мультфильм, комедия, приключения, семейный, 2016) BDRemux 1080p от ExKinoRay | iTunes

marya111

95 | 11

19.36 ГБ

В этой теме нет новых непрочитанных сообщений. В поисках Дори / Finding Dory (комедия, приключения, семейный, 2016) BDRip 720p от HELLYWOOD | iTunes

marya111

0 | 0

4.2 ГБ

В этой теме нет новых непрочитанных сообщений. В поисках Дори / Finding Dory (Мультфильм, комедия, приключения, семейный, 2016) DVD9 | Custom

marya111

29 | 18

6.39 ГБ


Начать новую тему Ответить на тему  [ 1 сообщение ] 




Для Мосгорсуда, Роскомнадзора и рекламодателей:: mosgorsud-torrent[собачка]yandex.ru