Торрент файл
скачать торрент магнет ссылка Добавлен: 04 ноя 2016, 02:13
Размер: 3.5 ГБ
Сидеров: 22
Личеров: 5
Автор

СообщениеДобавлено: 04 ноя 2016, 02:13 

Не в сети
Дата регистрации:
28 сен 2016, 18:10
Спасибо: 54 / 0
Сообщения: 942
Информация о фильме
Название: Звёздная Принцесса и Силы Зла
Другие названия: Стар против Сил Зла (Звезда против Сил Зла)
Оригинальное название: Star vs. the Forces of Evil
Год выхода: 2015
Страна: США, Disney Television Animation, Disney XD, Daron Nefcy Productions
Жанр: Фантастика, комедия, приключения, мультсериал
Продолжительность: 13 x ~ 00:22:00
Перевод: Дублированный (Кириллица)
Режиссеры: Дэвид Вассон, Пьеро Пилузо, Аарон Хэммерсли, Майкл Маллен
Роли озвучивали: Артт Батлер, Джон Хидер, Адам МакАртур, Мина Нодзи, Брайан Посен, Райдер Стронг, Иден Шер
Роли дублировали: Наталья Терешкова, Иван Калинин, Александр Матвеев, Алексей Войтюк, Анастасия Лапина. ...
О фильме: История о девочке, живущей в ином измерении, по имени Стар Баттерфляй, которая получила в 14 лет волшебную палочку. Но после того, как Стар чуть ли не превратила свой родной город в прах, родители отправили её в другое измерение, которое называется Земля, чтобы жить с семьёй Диаз, которая состоит из добродушных родителей и подростка по имени Марко. Все одноклассники и друзья считают его тихоней, который остерегается даже обыкновенного падения. Марко считает это неправдой, и из-за такой репутации подросток жаждет приключений и опасностей.
s1e01. Звёздочка прибывает на Землю + Вечеринка с пони
s1e02. Сваха + Школьный дух
s1e03. Рука-монстр + Другой студент по обмену
s1e04. Не унывай, Звёздочка + Приключенческий супермаркет
s1e05. Отпуск семьи Диасз + Вечеринка Бриттни
s1e06. Мьюбертатный период + Пикстопия
s1e07. Ракорука + Сонное колдовство
s1e08. Бал кровавой луны + Печенья с предсказанием
s1e09. Замороженный день + Королевская боль
s1e10. Школа Святой Ольги для непутёвых принцесс
s1e11. День Мьюнизависимости + Банановый инцидент
s1e12. Межпространственная экскурсия + Марко растит бороду
s1e13. Штурм замка



Доп. информация:
Семпл


Файл
Формат: AVI
Качество: WEB-DLRip
Видео: 720x400 (1.80:1), 23.976 fps, XviD build 65 ~1601 kbps avg, 0.23 bit/pixel
Звук: 48 kHz, AC3 Dolby Digital, 2/0 (L,R) ch, ~192.00 kbps avg
Субтитры: нет
s1e02. Сваха + Школьный дух. Dub.XviD-merci-.avi
Формат : AVI
Формат/Информация : Audio Video Interleave
Размер файла : 282 Мбайт
Продолжительность : 21 м.
Общий поток : 1803 Кбит/сек
Программа кодирования : VirtualDubMod 1.5.10.3 | www.virtualdub-fr.org || (build 2550/release)
Библиотека кодирования : VirtualDubMod build 2550/release
Видео
Идентификатор : 0
Формат : MPEG-4 Visual
Профиль формата : Advanced Simple@L5
Параметр BVOP формата : 1
Параметр QPel формата : Нет
Параметр GMC формата : Без точки перехода
Параметр матрицы формата : Default (MPEG)
Идентификатор кодека : XVID
Идентификатор кодека/Подсказка : XviD
Продолжительность : 21 м.
Битрейт : 1601 Кбит/сек
Ширина : 720 пикселей
Высота : 400 пикселей
Соотношение сторон : 16:9
Частота кадров : 23,976 (23976/1000) кадра/сек
Цветовое пространство : YUV
Субдискретизация насыщенности : 4:2:0
Битовая глубина : 8 бит
Тип развёртки : Прогрессивная
Метод сжатия : С потерями
Бит/(Пиксели*Кадры) : 0.232
Размер потока : 250 Мбайт (89%)
Библиотека кодирования : XviD 65
Аудио
Идентификатор : 1
Формат : AC-3
Формат/Информация : Audio Coding 3
Расширение режима : CM (complete main)
Параметр Endianness формата : Big
Идентификатор кодека : 2000
Продолжительность : 21 м.
Вид битрейта : Постоянный
Битрейт : 192 Кбит/сек
Каналы : 2 канала
Расположение каналов : Front: L R
Частота : 48,0 КГц
Частота кадров : 31,250 кадров/сек (1536 spf)
Метод сжатия : С потерями
Размер потока : 30,0 Мбайт (11%)
Выравнивание : Разделение по промежуткам
Продолжительность промежутка : 42 мс. (1,00 видеокадр)
Время предзагрузки промежутка : 500 мс.
Заголовок : Dub


Релиз от:
Автор релиза: /




реклама партнёра


Вернуться к началу
 Профиль Отправить личное сообщение  
 
   Похожие торренты   Автор   Торрент   Размер 
В этой теме нет новых непрочитанных сообщений. Стар против Сил Зла / Star vs the Forces of Evil [s01] (Фантастика, комедия, приключения, мультсериал, 2015) WEB-DLRip от ExKinoRay | L2

marya111

0 | 0

3.5 ГБ

В этой теме нет новых непрочитанных сообщений. Стар против Сил Зла / Star vs the Forces of Evil [s02x01-11 из 14)] (Фантастика, комедия, приключения, мультсериал, 2016) WEB-DLRip от ExKinoRay | L2

marya111

0 | 0

3.06 ГБ

В этой теме нет новых непрочитанных сообщений. Стар против Сил Зла / Star vs the Forces of Evil [s02x01-11 из 14)] (Фантастика, комедия, приключения, мультсериал, 2016) WEB-DLRip от ExKinoRay | L2

marya111

0 | 0

3.06 ГБ

В этой теме нет новых непрочитанных сообщений. Солнечные зайчики / Sunny Bunnies [s01] (Мультсериал, детский, комедия, приключения, 2015) WEB-DLRip 720p от ExKinoRay

marya111

0 | 0

1.13 ГБ

В этой теме нет новых непрочитанных сообщений. Бумажки [01-62] (Мультсериал, детский, семейный, приключения, 2015-2016) WEB-DLRip 1080p от ExKinoRay

marya111

0 | 0

5.33 ГБ

В этой теме нет новых непрочитанных сообщений. Марин и его друзья. Подводные истории / Bubble Marin [s01 + Бонусы] (Мультсериал, мультфильм, приключения, детский, 2014-2015) WEB-DLRip 1080p от ExKinoRay | D (Карусель)

marya111

11 | 1

13.59 ГБ

В этой теме нет новых непрочитанных сообщений. Буба (booba) [1-13 + Бонусы] (Мультсериал, детский, приключения, комедия, 2014-2016) WEB-DLRip 1080p от ExKinoRay

marya111

21 | 5

975.38 МБ


Начать новую тему Ответить на тему  [ 1 сообщение ] 




Для Мосгорсуда, Роскомнадзора и рекламодателей:: mosgorsud-torrent[собачка]yandex.ru