Торрент файл
скачать торрент магнет ссылка Добавлен: 04 ноя 2016, 02:13
Размер: 276.84 МБ
Сидеров: 38
Личеров: 1
Автор

СообщениеДобавлено: 04 ноя 2016, 02:13 

Не в сети
Дата регистрации:
28 сен 2016, 18:10
Спасибо: 55 / 0
Сообщения: 942
Информация о фильме
Оригинальное название: Маша и Медведь: Game Over
Год выхода: 2016
Страна: Россия, Студия "Анимаккорд"
Жанр: Мультсериал, сказка, детский, семейный
Продолжительность: 00:07:26
Язык: русский
Режиссер: Георгий Орлов
Режиссёр озвучивания: Алина Кукушкина
Роли озвучивали:
Маша - Варвара Саранцева
Медведь - Борис Кутневич
Заяц / Панда - Марк Кутневич
Медвежата - Катя Кутневич
О фильме:
Медведь перестал выходить из дома, заниматься хозяйством и сажать свои любимые овощи! Маша и остальные лесные жители не на шутку обеспокоены и хотят помочь Медведю! Получится ли вернуть его к реальной жизни, или все - Game over?!




Файл
Формат: MKV
Качество: WEB-DL 1080p
Видео: MPEG4-AVC, High@L4, 1920x1080 (16:9), ~ 4 904 Kbps, 25.000 fps
Звук: 48.0 KHz, AC3 2.0, 192 Kbps
Субтитры: нет
59. Game Over. WEB-DL.1080p.-merci-.mkv
Формат : Matroska
Версия формата : Version 2
Размер файла : 277 Мбайт
Продолжительность : 7 м. 26 с.
Общий поток : 5200 Кбит/сек
Название фильма : Маша и Медведь (WEB-DL) / 2016 / -merci-
Дата кодирования : UTC 2016-10-15 06:01:52
Программа кодирования : mkvmerge v5.8.0 ('No Sleep / Pillow') built on Sep 2 2012 15:37:04
Библиотека кодирования : libebml v1.2.3 + libmatroska v1.3.0
Видео
Идентификатор : 1
Формат : AVC
Формат/Информация : Advanced Video Codec
Профиль формата : High@L4
Параметр CABAC формата : Да
Параметр ReFrames формата : 2 кадра
Идентификатор кодека : V_MPEG4/ISO/AVC
Продолжительность : 7 м. 26 с.
Битрейт : 4904 Кбит/сек
Ширина : 1920 пикселей
Высота : 1080 пикселей
Соотношение сторон : 16:9
Режим частоты кадров : Постоянный
Частота кадров : 25,000 кадров/сек
Цветовое пространство : YUV
Субдискретизация насыщенности : 4:2:0
Битовая глубина : 8 бит
Тип развёртки : Прогрессивная
Бит/(Пиксели*Кадры) : 0.095
Размер потока : 261 Мбайт (94%)
Заголовок : 59. Game Over. WEB-DL.1080p.x264.-merci-
Язык : Russian
Default : Да
Forced : Нет
Цветовой диапазон : Limited
Основные цвета : BT.709
Характеристики трансфера : BT.709
Коэффициенты матрицы : BT.709
Аудио
Идентификатор : 2
Формат : AC-3
Формат/Информация : Audio Coding 3
Расширение режима : CM (complete main)
Параметр Endianness формата : Big
Идентификатор кодека : A_AC3
Продолжительность : 7 м. 26 с.
Вид битрейта : Постоянный
Битрейт : 192 Кбит/сек
Каналы : 2 канала
Расположение каналов : Front: L R
Частота : 48,0 КГц
Частота кадров : 31,250 кадров/сек (1536 spf)
Метод сжатия : С потерями
Размер потока : 10,2 Мбайт (4%)
Заголовок : rus
Язык : Russian
Default : Да
Forced : Нет


Релиз от:
Автор релиза:




реклама партнёра


Вернуться к началу
 Профиль Отправить личное сообщение  
 
   Похожие торренты   Автор   Торрент   Размер 
В этой теме нет новых непрочитанных сообщений. Маша и Медведь. Пещерный медведь [48] [Мультсериал, сказка, детский, семейный. 2014] WEBRip

Dracon

116 | 5

97.91 МБ

В этой теме нет новых непрочитанных сообщений. Маша и Медведь. Раз в году [44] [Мультсериал, сказка, детский, семейный. 2014] WEB-DLRip

Dracon

29 | 3

107.25 МБ

В этой теме нет новых непрочитанных сообщений. Маша и медведь: Крик победы [47] [Мультсериал, сказка, детский, семейный. 2014] WEB-DLRip

Dracon

74 | 3

281.49 МБ

В этой теме нет новых непрочитанных сообщений. Маша и медведь: Героями не рождаются [43] [Мультсериал, сказка, детский, семейный. 2014] WEBRip

Dracon

2125 | 33

95.43 МБ

В этой теме нет новых непрочитанных сообщений. Маша и Медведь. Учитель танцев [46] [Мультсериал, сказка, детский, семейный. 2014] WEB-DLRip

Dracon

1559 | 32

108.86 МБ

В этой теме нет новых непрочитанных сообщений. Маша и медведь: Праздник урожая [50] (Олег Кузовков, Олег Ужинов, Денис Червяцов) [Мультсериал, сказка, детский, семейный, 2015] WEB-DL 1080p

Dracon

1599 | 59

204.72 МБ

В этой теме нет новых непрочитанных сообщений. Маша и Медведь. Неуловимые мстители [51] (Олег Кузовков, Олег Ужинов, Денис Червяцов) [Мультсериал, сказка, детский, семейный, 2015] WEB-DLRip 1080p

Dracon

10 | 0

189.29 МБ


Начать новую тему Ответить на тему  [ 1 сообщение ] 




Для Мосгорсуда, Роскомнадзора и рекламодателей:: mosgorsud-torrent[собачка]yandex.ru