Торрент файл
скачать торрент магнет ссылка Добавлен: 04 ноя 2016, 02:12
Размер: 1.13 ГБ
Сидеров: 0
Личеров: 0
Автор

СообщениеДобавлено: 04 ноя 2016, 02:12 

Не в сети
Дата регистрации:
28 сен 2016, 18:10
Спасибо: 55 / 0
Сообщения: 942
Информация о фильме
Название: Солнечные зайчики
Альтернативное название: Малыши прыгуши
Оригинальное название: Sunny Bunnies
Год выхода: 2015
Страна: Беларусь, Digital Light Studio
Жанр: Мультсериал, детский, комедия, приключения
Продолжительность: 26 х ~ 00:03:40
Перевод: не требуется
Режиссер: Андрей Леденев
Роли озвучивали: Светлана Тимохина, Дмитрий Давидович
О фильме: Ребята, вы еще не знакомы с озорными солнечными зайчиками? Конечно же, кто их не видел? А вот близко вряд ли кто знаком. И мы рады вам их представить. Знакомьтесь – Турбо, близняшки Светик и Ириска, сластена Большой Бу и самый младшенький Кузя. Все они очень веселые и забавные, каждый солнечный зайчик имеет свой цвет. Ириска – синяя, Светик – голубая, Большой Бу – лиловый, Кузя – зеленый, а Турбо – оранжевый. Солнечные зайчики обожают путешествовать. Живут они на Солнце, но как только появляется возможность, они с радостью мчат на Землю, чтобы понежиться на зеленой травке и поплескаться в водичке.
01. Карусель
02. Волшебная палочка
03. Концерт
04. Кто быстрее_
05. Зайчики на Луне
06. Волшебный чемоданчик
07. Светлячки
08. Легкая атлетика
09. Прятки
10. День рождения
11. Кто там_
12. Поймай меня
13. Пойдем кататься!
14. Новый год
15. Рыцарский турнир
16. Заветные желания
17. Большой теннис
18. Мыльные пузыри
19. Цветомешалка
20. Чудо-кисточка
21. Выше всех
22. Жонглер
23. Селфи
24. Храбрый летчик
25. Фокус-покус
26. Сила волшебства



Доп. информация:
Семпл


Файл
Формат: MP4
Качество: WEB-DLRip 720p
Видео: MPEG4-AVC, Main@L3.1, 1280x720 (16:9), ~ 2 099 Kbps, 25.000 fps
Звук: 44.1 KHz, AAC-LC 2.0, 192 Kbps
Субтитры: нет
18. Мыльные пузыри. HD-merci-.mp4
Формат : MPEG-4
Профиль формата : Base Media
Идентификатор кодека : isom (isom/mp42)
Размер файла : 57,3 Мбайт
Продолжительность : 3 м. 29 с.
Режим общего битрейта : Переменный
Общий поток : 2295 Кбит/сек
Дата кодирования : UTC 2016-10-07 03:12:38
Дата пометки : UTC 2016-10-07 03:12:38
Программа кодирования : My MP4Box GUI 0.6.0.6
Видео
Идентификатор : 1
Формат : AVC
Формат/Информация : Advanced Video Codec
Профиль формата : Main@L3.1
Параметр CABAC формата : Да
Параметр ReFrames формата : 3 кадра
Параметр GOP формата : M=1, N=2
Идентификатор кодека : avc1
Идентификатор кодека/Информация : Advanced Video Coding
Продолжительность : 3 м. 29 с.
Продолжительность оригинала : 3 м. 29 с.
Битрейт : 2099 Кбит/сек
Ширина : 1280 пикселей
Высота : 720 пикселей
Соотношение сторон : 16:9
Режим частоты кадров : Постоянный
Частота кадров : 25,000 кадров/сек
Цветовое пространство : YUV
Субдискретизация насыщенности : 4:2:0
Битовая глубина : 8 бит
Тип развёртки : Прогрессивная
Бит/(Пиксели*Кадры) : 0.091
Размер потока : 52,4 Мбайт (91%)
Размер потока оригинала : 52,4 Мбайт (91%)
Язык : English
Дата кодирования : UTC 2016-10-07 03:12:38
Дата пометки : UTC 2016-10-07 03:12:38
Цветовой диапазон : Limited
Основные цвета : BT.709
Характеристики трансфера : BT.709
Коэффициенты матрицы : BT.709
mdhd_Duration : 209401
Аудио
Идентификатор : 2
Формат : AAC
Формат/Информация : Advanced Audio Codec
Профиль формата : LC
Идентификатор кодека : 40
Продолжительность : 3 м. 29 с.
Вид битрейта : Переменный
Битрейт : 192 Кбит/сек
Каналы : 2 канала
Расположение каналов : Front: L R
Частота : 44,1 КГц
Частота кадров : 43,066 кадра/сек (1024 spf)
Метод сжатия : С потерями
Размер потока : 4,76 Мбайт (8%)
Язык : English
Дата кодирования : UTC 2016-10-07 03:12:38
Дата пометки : UTC 2016-10-07 03:12:38
mdhd_Duration : 209401


Релиз от:
Автор релиза: /




реклама партнёра


Вернуться к началу
 Профиль Отправить личное сообщение  
 
   Похожие торренты   Автор   Торрент   Размер 
В этой теме нет новых непрочитанных сообщений. Джинглики [01-06] (Мультсериал, детский, 2015) WEB-DLRip 720p от ExKinoRay

marya111

0 | 0

915.03 МБ

В этой теме нет новых непрочитанных сообщений. Бумажки [01-62] (Мультсериал, детский, семейный, приключения, 2015-2016) WEB-DLRip 1080p от ExKinoRay

marya111

0 | 0

5.33 ГБ

В этой теме нет новых непрочитанных сообщений. Буба (booba) [1-13 + Бонусы] (Мультсериал, детский, приключения, комедия, 2014-2016) WEB-DLRip 1080p от ExKinoRay

marya111

21 | 5

975.38 МБ

В этой теме нет новых непрочитанных сообщений. Марин и его друзья. Подводные истории / Bubble Marin [s01 + Бонусы] (Мультсериал, мультфильм, приключения, детский, 2014-2015) WEB-DLRip 1080p от ExKinoRay | D (Карусель)

marya111

20 | 4

13.59 ГБ

В этой теме нет новых непрочитанных сообщений. Киока / Kioka [01-11] ( Мультсериал, детский, обучающий, познавательный, 2015) WEB-DLRip 1080p от ExKinoRay | D

marya111

4 | 2

1.11 ГБ

В этой теме нет новых непрочитанных сообщений. Ангел Бэби [01x01-16,02x17-23 из ?] (Мультсериал, рисованный, детский, обучающий, 2015-2016) WEB-DLRip от ExKinoRay

marya111

0 | 0

1.96 ГБ

В этой теме нет новых непрочитанных сообщений. 10 друзей Кролика [01x01-20 из 92] (Мультсериал, приключения, детский, семейный, 2015) WEB-DL 1080p от ExKinoRay

marya111

17 | 12

3.16 ГБ


Начать новую тему Ответить на тему  [ 1 сообщение ] 




Для Мосгорсуда, Роскомнадзора и рекламодателей:: mosgorsud-torrent[собачка]yandex.ru