Торрент файл
скачать торрент магнет ссылка Добавлен: 09 апр 2011, 19:19
Размер: 7.14 ГБ
Сидеров: 96
Личеров: 24
Автор

СообщениеДобавлено: 09 апр 2011, 19:19 

Не в сети
Супермодератор
Аватара пользователя
Дата регистрации:
22 май 2010, 11:03
Возраст: 31
Спасибо: 7509 / 13
Сообщения: 49940
Шарлотта земляничка / Strawberry Shortcake


Перевод: Профессиональный (полное дублирование), cубтитры: отсутствуют
Формат: SATRip, AVI, XviD, MP3
Страна: США
Режиссер: Боб Хетчок

Жанр: Развивающий и обучающий мультсериал для детей

Продолжительность: 23 серий ~ 00:22:00

Год выпуска: 2009

В ролях: Анна Каммер, Эшли Болл, Ингрид Нильсон, Дженис Джауд, Бритт МакКилип, Андреа Либман, Пол Добсон

Описание: В самом сладком, ярком и ароматном городе живут шесть настоящих подружек: Земляничка, Малинка, Черничка, Лимона, Апельсинка и Сливка. этим ягодкам ни раз придётся проверить свою дружбу на прочность. Маленькие модницы превращают каждый день в весёлую забаву, а неприятности в радостные приключения.
Тебе предложили помощь: как вежливо дать понять, что справишься сама и поступишь по-своему? Как выразить несогласие, но не поссориться? Как быть, если не получается выполнить задание или сдержать обещание? Как поделиться эмоциями, не задев чувств окружающих? Земляничка и ее друзья учатся этому всему вместе с маленькими зрителями.

Этот 3D мультсериал весело и доступно обучает детей азам эмоционального интеллекта, а также приучает к правильному и здоровому питанию.

Список серий

01. Домашний любимец (Fish Out of Water)
02. Новое платье Шарлотты (A Stitch in Time)
03. Праздник цветов (Vanishing Violets)
04. Малыш Ягодка (Babysitter Blues)
05. Новый прибор (Hair Today Gone Tomorrow)
06. Шарлотта - почтальон (The Berry Best You Can Bee)
07. Как правильно принимать гостей (Strawberry's House Pest )
08. Конкурс рекордов (Berry Bitty World Record)
09. Правила (Too Cool For Rules)
10. Выборы (Berry Best BerryFest Princess)
11. Страшилки (Nothing to Fear But Berries Themselves)
12. Детектив Черничка (Where Oh Where Has My Blueberry Gone)
13. Маленькие ягодные гонки (Manners Meltdown)
14. Большие и маленькие (Trading Sizes)
15. Танцевальный марафон (Different Waltz for Different Faults)
16. Первый мороз (Happy First Frost)
17. Круг друзей (A Circle of Friends)
18. Светоягодный бал (Glimmerberry Ball)
19. Гламикюр (Nice as Nails)
20. Как ты играешь в игру (How You Play the Game)
21. Клуб добрых граждан (Good Citizens Club)
22. Команда для двоих (Team for Two)
23. Потерян и найден (Lost and Found)


Бонус: Поверь (песня из мультсериала)

Видео: 704x528 (1.33:1), 25 fps, XviD MPEG-4 ~1898 kbps avg, 0.20 bit/pixel
Аудио: 48 kHz, MPEG Layer 3, 2 ch, ~192.00 kbps avg

Доп. информация:


General
Complete name: Шарлотта земляничка\06. Шарлотта - почтальон.avi
Format: AVI
Format/Info: Audio Video Interleave
File size: 317 MiB
Duration: 21mn 5s
Overall bit rate: 2 103 Kbps
Writing library: TMPGEnc 4.0 XPress Version. 4.7.7.307
Video
ID: 0
Format: MPEG-4 Visual
Format profile: Advanced Simple@L5
Format settings, BVOP: Yes
Format settings, QPel: No
Format settings, GMC: No warppoints
Format settings, Matrix: Default (MPEG)
Muxing mode: Packed bitstream
Codec ID: XVID
Codec ID/Hint: XviD
Duration: 21mn 5s
Bit rate: 1 897 Kbps
Width: 704 pixels
Height: 528 pixels
Display aspect ratio: 4:3
Frame rate: 25.000 fps
Color space: YUV
Chroma subsampling: 4:2:0
Bit depth: 8 bits
Scan type: Progressive
Compression mode: Lossy
Bits/(Pixel*Frame): 0.102
Stream size: 286 MiB (90%)
Writing library: XviD 1.2.1 (UTC 2008-12-04)
Audio
ID: 1
Format: MPEG Audio
Format version: Version 1
Format profile: Layer 3
Mode: Joint stereo
Codec ID: 55
Codec ID/Hint: MP3
Duration: 21mn 5s
Bit rate mode: Constant
Bit rate: 192 Kbps
Channel(s): 2 channels
Sampling rate: 48.0 KHz
Compression mode: Lossy
Stream size: 29.0 MiB (9%)
Alignment: Aligned on interleaves
Interleave, duration: 250 ms (12.50 video frames)
Interleave, preload duration: 216 ms

Внимание! Раздача ведётся путём добавления новых серий; при каждом добавлении создётся новый торрент. Чтобы начать докачку новой серии, пользователям необходимо сделать следующее:
(1) остановить скачивание,
(2) удалить старый торрент у себя из клиента (старые серии удалять не надо),
(3) скачать новый торрент и запустить его у себя в клиенте вместо старого, при этом указать клиенту путь в старую папку куда и должно происходить скачивание новых серий.

Ваш клиент при этом должен произвести хеширование (проверку) старой папки (если не производит сам - помогите ему сделать это), и будет докачивать только те серии которых у вас ещё нет. Старые серии при этом не удаляются, а продолжают раздаваться!
Eсли вы уже удалили старые серии, то предотвратить повторную закачку старых серий можно, отжав галочку в соответсвующих местах при запуске нового торрента. По возможности, желательно не удалять старые серии как можно дольше чтобы релизёр не столько продолжал раздавать старые серии, а смог сконцентрироваться на новых.








реклама партнёра


Вернуться к началу
 Профиль Отправить личное сообщение  
 
   Похожие торренты   Автор   Торрент   Размер 
В этой теме нет новых непрочитанных сообщений. Киока / Kioka [01-11] ( Мультсериал, детский, обучающий, познавательный, 2015) WEB-DLRip 1080p от ExKinoRay | D

marya111

4 | 2

1.11 ГБ

В этой теме нет новых непрочитанных сообщений. Ангел Бэби [01x01-16,02x17-23 из ?] (Мультсериал, рисованный, детский, обучающий, 2015-2016) WEB-DLRip от ExKinoRay

marya111

0 | 0

1.96 ГБ

В этой теме нет новых непрочитанных сообщений. Речные монстры / River Monsters [S05] (Барни Ревилл, Доминик Уэстон, Шарлотта Джонс) [2013, Документальный, рыбалка, SATRip]

Nickolas3435

68 | 29

3.42 ГБ

В этой теме нет новых непрочитанных сообщений. Клубничный утес / Strawberry Cliff [триллер, 2010] WEB-DLRip, Dvo

salma3

68 | 16

1.37 ГБ

В этой теме нет новых непрочитанных сообщений. The Strawberry Alarm Clock - Incense And Peppermints [2011, Psychedelice Rock, MP3]

PriZraK

0 | 1

77.66 МБ

В этой теме нет новых непрочитанных сообщений. Секс после детей / Sex After Kids [комедия, 2013] SATRip, Dvo [НТВ+]

salma3

25 | 2

1.36 ГБ

В этой теме нет новых непрочитанных сообщений. Тайна катакомб / Bleu catacombes (Шарлотта Брандстром) [2013, триллер, HDTVRip] mvo

Nickolas3435

337 | 9

1.46 ГБ


Начать новую тему Ответить на тему  [ 1 сообщение ] 




Для Мосгорсуда, Роскомнадзора и рекламодателей:: mosgorsud-torrent[собачка]yandex.ru