Торрент файл
скачать торрент магнет ссылка Добавлен: 09 апр 2011, 19:17
Размер: 3.78 ГБ
Сидеров: 12
Личеров: 5
Автор

СообщениеДобавлено: 09 апр 2011, 19:17 

Не в сети
Супермодератор
Аватара пользователя
Дата регистрации:
22 май 2010, 11:03
Возраст: 32
Спасибо: 7690 / 13
Сообщения: 49871
Так и волшебная сила Жужу / Tak & the Power of Juju



Перевод: Профессиональный (полное дублирование)
Субтитры:Отсутствуют
Формат: SATRip, AVI, XviD, MP3
Страна: США
Режиссер: Джим Шуманн, Heiko Drengenberg, Марк Рисли
Жанр: мультфильм
Продолжительность: ~00:22 серия
Год выпуска: 2007

В ролях: Кэри Уолгрен , Dannah Feinglass , Морис ЛаМарш , Lloyd Sherr , Хэл Спаркс , Патрик Варбертон , Джон Ди Маджио , Меган Кэвэна , Джефф Беннетт , Роб Полсен

Описание: Мальчик-дикарь Так счастливо живет вместе со своим племенем в самой середине джунглей, окруженный друзьями, шаманами, мелкими чудовищами и волшебной силой Жужу! Что такое Жужу? Вы увидите сами! Главное — она работает, а иногда еще и разговаривает!

Рейтинг Кинопоиск.RU: 3.000
Рейтинг IMDB: 4.5/10

Видео: 640x480 (4:3), 25.000 fps, XviD, ~1338 kbps avg, 0.174 bit/pixel
Аудио:Русский: 48 kHz, MPEG Layer 3, 1 ch, ~128 kbps avg [Профессиональный (полное дублирование)]


Общее
Полное имя: E:\мульты\Tak and the Power of Juju\s1e1 Woodiefest & Loser.avi
Формат: AVI
Формат/Информация: Audio Video Interleave
Размер файла: 233 Мбайт
Продолжительность: 22 м.
Общий поток: 1447 Кбит/сек
Программа кодирования: VirtualDubMod 1.5.4.1 (build 2178/release)
Библиотека кодирования: VirtualDubMod build 2178/release

Видео
Идентификатор: 0
Формат: MPEG-4 Visual
Профиль формата: Advanced Simple@L5
Параметр BVOP формата: 1
Параметр QPel формата: Нет
Параметр GMC формата: Без точки перехода
Параметр матрицы формата: Выборочная
Идентификатор кодека: XVID
Идентификатор кодека/Подсказка: XviD
Продолжительность: 22 м.
Битрейт: 1338 Кбит/сек
Ширина: 640 пикс.
Высота: 480 пикс.
Соотношение сторон: 4:3
Частота кадров: 25,000 кадр/сек
Цветовое пространство: YUV
Подвыборка цветности: 4:2:0
Битовая глубина: 8 бит
Тип развёртки: Прогрессивная
Метод сжатия: С потерями
Бит/(Пиксели*Кадры): 0.174
Размер потока: 215 Мбайт (92%)
Библиотека кодирования: XviD 1.2.0.dev47 (UTC 2006-11-01)

Аудио
Идентификатор: 1
Формат: MPEG Audio
Версия формата: Version 1
Профиль формата: Layer 3
Идентификатор кодека: 55
Идентификатор кодека/Подсказка: MP3
Продолжительность: 22 м.
Вид битрейта: Переменный
Битрейт: 96,3 Кбит/сек
Номинальный битрейт: 128 Кбит/сек
Канал(ы): 1 канал
Частота: 48,0 КГц
Метод сжатия: С потерями
Размер потока: 15,5 Мбайт (7%)
Выравнивание: Соединение по промежуткам
Продолжительность промежутка: 24мс. (0,60 видеокадр)
Время предзагрузки промежутка: 518 ms
Библиотека кодирования: LAME3.97
Настройки программы: -m m -V 4 -q 2 -lowpass 20.5 --abr 128

















реклама партнёра


Вернуться к началу
 Профиль Отправить личное сообщение  
 
   Похожие торренты   Автор   Торрент   Размер 
В этой теме нет новых непрочитанных сообщений. Первая сила / The First Power [Триллер, ужасы, 1990] BDRip-AVC, Avo

salma3

32 | 6

2.33 ГБ

В этой теме нет новых непрочитанных сообщений. JUJU [Arcade, Platform, 3D, 2014] [RePack]

vitalikmd

200 | 62

2.17 ГБ

В этой теме нет новых непрочитанных сообщений. Первая сила / The First Power [Триллер, ужасы, 1990] BDRip, Avo [Гаврилов]

salma3

37 | 0

1.46 ГБ

В этой теме нет новых непрочитанных сообщений. Первая сила / The First Power [ужасы, триллер, криминал, 1990] BDRemux 1080p, Dvo+Avo+Sub

salma3

32 | 3

15.4 ГБ

В этой теме нет новых непрочитанных сообщений. Penthouse The Power Of Ass / Пентхаус: Сила Задницы (Студия: Penthouse.) (Danny Wylde, Katja Kassin, Phoneix Marie, Reena Sky, Mischa Brooks, Sheena Ryder) [2014 г., All Sex., DVDRip 404р]

friizze

4 | 4

864.78 МБ

В этой теме нет новых непрочитанных сообщений. Морская сила России (1-6 серии из 6) (Людмила Назарук, Борис Мамлин) [2006 - 2009, документальный, флот, история, война, SATRip]

salma3

2 | 1

3.16 ГБ

В этой теме нет новых непрочитанных сообщений. Волшебная лампа / The Outing [ужасы, 1987] BDRip, Avo

salma3

92 | 13

1.46 ГБ


Начать новую тему Ответить на тему  [ 1 сообщение ] 




Для Мосгорсуда, Роскомнадзора и рекламодателей:: mosgorsud-torrent[собачка]yandex.ru