Торрент файл
скачать торрент магнет ссылка Добавлен: 22 окт 2016, 03:04
Размер: 2.62 ГБ
Сидеров: 11
Личеров: 1
Автор

СообщениеДобавлено: 22 окт 2016, 03:04 

Не в сети
Дата регистрации:
28 сен 2016, 18:10
Спасибо: 55 / 0
Сообщения: 942
Трое из Простоквашино Сборник мультфильмов

Перевод: Не требуется, cубтитры: отсутствуют

Формат: BDRip, MKV, AVC (х264), AC3
Страна: СССР

Режиссер: Владимир Попов

Жанр: мультфильм, семейный
Продолжительность: 00:51:23
Год выпуска: 1978-1984

Роли озвучивают: Мария Виноградова, Олег Табаков, Лев Дуров, Борис Новиков, Герман Качин, Валентина Талызина

Описание:
1. Трое из простоквашино 1978
Жил-был мальчик по прозвищу Дядя Федор. Он очень любил животных, но его родители и слышать ничего не хотели о том, чобы в их квартире завелся кто-то хвостатый и лохматый. И пришлось Дяде Федору со своими новыми приятелями — котом Матроскиным и верным песиком Шариком — отправиться в деревню Простоквашино.



2. Каникулы в Простоквашино 1980
Заболевший дядя Федор был увезен в первом мультфильме родителями в город, а заблудшая на участок корова стала давать огромное количество молока. Шарик и кот Матроскин вяло поругивались, но жили в целом мирно.
А тем временем мама решила поехать на курорт, чтобы износить четыре вечерних платья, а на вокзале дядя Федор сбежал и укатил в Простоквашино к своим старым друзьям. Шарику прислали фоторужье, Корова родила теленка, которого Шарик учил служить. Много было веселых и славных событий, а под конец и мама приехала с папой. Если бы у нее была вторая жизнь, она бы ее провела в Простоквашино.



3. Зима в Простоквашино 1984
Шарик купил себе на зиму вместо валенок кеды, Матроскин обозвал его балбесом, и друзья друг с другом не разговаривали. Дядя Федор тем временем ремонтировал с папой «запорожца», а маме все надоело.
А на Новый год папа с Федором решили поехать в Простоквашино проведать Шарика с Матроскиным, которые уже начали раздел имущества… Там все и встретили Новый Год - даже мама на лыжах приехала!



Видео: 1428 x 1080, 25.000 кадр/сек, AVC (х264), , ~ 6856 Kbps, 0.178 bit/pixel
Аудио: 48 kHz, AC3 Dolby Digital, 3/2 (L,C,R,l,r) + LFE ch, ~448 kbps

Видео
Идентификатор : 1
Формат : AVC
Формат/Информация : Advanced Video Codec
Профиль формата :
Параметр CABAC формата : Да
Параметр ReFrames формата : 4 кадры
Режим смешивания : Header stripping
Идентификатор кодека : V_MPEG4/ISO/AVC
Продолжительность : 51 м.
Битрейт : 6856 Кбит/сек
Ширина : 1428 пикс.
Высота : 1080 пикс.
Соотношение сторон : 4:3
Частота кадров : 25,000 кадр/сек
Цветовое пространство : YUV
Подвыборка цветности : 4:2:0
Битовая глубина : 8 бит
Тип развёртки : Прогрессивная
Бит/(Пиксели*Кадры) : 0.178
Размер потока : 2,41 Гбайт (92%)
Библиотека кодирования : x264 core 92 r1510 33d382a

Аудио
Идентификатор : 2
Формат : AC-3
Формат/Информация : Audio Coding 3
Расширение режима : CM (complete main)
Режим смешивания : Header stripping
Идентификатор кодека : A_AC3
Продолжительность : 51 м.
Вид битрейта : Постоянный
Битрейт : 448 Кбит/сек
Канал(ы) : 6 канала(ов)
Расположение каналов : Front: L C R, Side: L R, LFE
Частота : 48,0 КГц
Битовая глубина : 16 бит
Метод сжатия : С потерями
Размер потока : 165 Мбайт (6%)











реклама партнёра


Вернуться к началу
 Профиль Отправить личное сообщение  
 
   Похожие торренты   Автор   Торрент   Размер 
В этой теме нет новых непрочитанных сообщений. Рио 2 / Rio 2 [Мультфильм, комедия, приключения, семейный, 2014] BDRip 1080p, Dub+Sub [Лицензия | 3D-Video]

Dracon

607 | 32

7.63 ГБ

В этой теме нет новых непрочитанных сообщений. Кумба / Khumba [Мультфильм, Приключения, Семейный, 2013] BDRip 1080p, Dub [3D-Video]

Dracon

15 | 2

3.9 ГБ

В этой теме нет новых непрочитанных сообщений. Реальная белка / The Nut Job [Мультфильм, приключения, семейный, 2013] BDRip 1080p, Dub [Лицензия | 3D-Video]

Dracon

20 | 3

5.23 ГБ

В этой теме нет новых непрочитанных сообщений. Тарзан / Tarzan [Мультфильм, приключения, семейный, 2013] BDRip 1080p, Dub [Лицензия | 3D-Video]

Dracon

193 | 14

7.47 ГБ

В этой теме нет новых непрочитанных сообщений. Реальная белка / The Nut Job [мультфильм, комедия, приключения, семейный, 2014] BDRip 1080p, Mvo [3D Video]

Dracon

10 | 5

6.59 ГБ

В этой теме нет новых непрочитанных сообщений. Почтальон Пэт / Postman Pat: The Movie [Мультфильм, Комедия, семейный, 2014] BDRip 1080p, Dub [Лицензия | 3D-Video]

Dracon

57 | 3

4.89 ГБ

В этой теме нет новых непрочитанных сообщений. Иван Царевич и Серый Волк 2 [Мультфильм, семейный, 2013] BDRip 1080p [Лицензия | 3D-Video]

Dracon

417 | 24

2.35 ГБ


Начать новую тему Ответить на тему  [ 1 сообщение ] 




Для Мосгорсуда, Роскомнадзора и рекламодателей:: mosgorsud-torrent[собачка]yandex.ru