Торрент файл
скачать торрент магнет ссылка Добавлен: 15 окт 2016, 21:37
Размер: 1.37 ГБ
Сидеров: 141
Личеров: 98
Статус: (salma3)
Автор

СообщениеДобавлено: 15 окт 2016, 21:37 

Не в сети
Супермодератор
Аватара пользователя
Дата регистрации:
15 фев 2012, 16:44
Возраст: 27
Спасибо: 5121 / 2089
Сообщения: 17292
Год выхода: 2016
Жанр: Мультфильм, семейный
Режиссер: Ричард Рич

В ролях: Лора Бэйли, Максин Блу, Grant Durazzo, Келлен Гофф, Jayden Isabel, Гарднер Джаэс, Клэйтон Джеймс, Катрин Лавин

О фильме:
Когда родители уезжают на лето, юная любительница приключений принцесса Алиса остается под присмотром королевы Уберты, которая пытается воспитывать ее в лучших монарших традициях. Но принцесса скучает и мечтает сдать удалым пиратом. Вместе с лордом Роджерсом, лягушонком Джин-Бобом и черепашкой Спедом она отправляется в полное удивительных приключений, опасностей и открытий путешествие к дальним морям. После кораблекрушения, которое выносит отважных моряков на берег таинственного дикого острова, они встречают Лукаса – мальчика, живущего затворником. Теперь друзья должны вместе придумать, как спастись с острова, кишащего свирепыми голодными чудовищами.



Страна: США
Студия: Nest Family Entertainment
Продолжительность: 01:18:56
Перевод: Профессиональный (многоголосый, закадровый)[iTunes]

Файл
Качество: WEB-DLRip
Формат: AVI
Кодек: XviD
Видео: 720x400 (16:9), 23,976 fps, XviD ~2086 kbps avg, 0.302 bit/pixel
Аудио: AC3, 48 kHz, 2 ch, ~384.00 kbps avg

Семпл

Общее
Полное имя : D:The.Swan.Princess.2O16.P.WEB-DLRip.14OOMB.avi
Формат : AVI
Формат/Информация : Audio Video Interleave
Размер файла : 1,37 Гбайт
Продолжительность : 1 ч. 18 м.
Общий поток : 2479 Кбит/сек
Программа кодирования : VirtualDubMod 1.5.10.2 (build 2540/release)
Библиотека кодирования : VirtualDubMod build 2540/release
Видео
Идентификатор : 0
Формат : MPEG-4 Visual
Профиль формата : Advanced Simple@L5
Параметр BVOP формата : 2
Параметр QPel формата : Нет
Параметр GMC формата : Без точки перехода
Параметр матрицы формата : Default (MPEG)
Идентификатор кодека : XVID
Идентификатор кодека/Подсказка : XviD
Продолжительность : 1 ч. 18 м.
Битрейт : 2086 Кбит/сек
Ширина : 720 пикселей
Высота : 400 пикселей
Соотношение сторон : 16:9
Частота кадров : 23,976 кадра/сек
Цветовое пространство : YUV
Субдискретизация насыщенности : 4:2:0
Битовая глубина : 8 бит
Тип развёртки : Прогрессивная
Метод сжатия : С потерями
Бит/(Пиксели*Кадры) : 0.302
Размер потока : 1,15 Гбайт (84%)
Библиотека кодирования : XviD 1.2.1 (UTC 2008-12-04)
Аудио
Идентификатор : 1
Формат : AC-3
Формат/Информация : Audio Coding 3
Расширение режима : CM (complete main)
Параметр Endianness формата : Big
Идентификатор кодека : 2000
Продолжительность : 1 ч. 18 м.
Вид битрейта : Постоянный
Битрейт : 384 Кбит/сек
Каналы : 2 канала
Расположение каналов : Front: L R
Частота : 48,0 КГц
Метод сжатия : С потерями
Размер потока : 217 Мбайт (15%)
Выравнивание : Разделение по промежуткам
Продолжительность промежутка : 42 мс. (1,00 видеокадр)
Время предзагрузки промежутка : 500 мс.


_________________



реклама партнёра


Вернуться к началу
 Профиль Отправить личное сообщение  
 
   Похожие торренты   Автор   Торрент   Размер 
В этой теме нет новых непрочитанных сообщений. Принцесса Лебедь: Пират или принцесса? / The Swan Princess: Princess Tomorrow, Pirate Today! [Мультфильм, семейный, 2016] WEB-DL 720p, Mvo [iTunes]

salma3

590 | 117

2.51 ГБ

В этой теме нет новых непрочитанных сообщений. Повторный Принцесса Ток-хе / Принцесса Док-хе / The Last Princess / Deokhyeongjoo ( драма, биография, история, 2016) HDRip | L2 Данный торрент является блокированным, причина: повторный торрент

marya111

0 | 0

1.46 ГБ

В этой теме нет новых непрочитанных сообщений. Барби: Жемчужная Принцесса / Barbie: The Pearl Princess [мультфильм, 2014] BDRip, Dub [Лицензия]

salma3

862 | 40

1.37 ГБ

В этой теме нет новых непрочитанных сообщений. Моя могучая принцесса / My mighty princess [боевик, мелодрама, комедия, 2008] DVDRip, Avo

salma3

63 | 3

1.45 ГБ

В этой теме нет новых непрочитанных сообщений. Принцесса Карабу / Princess Caraboo [Драма, мелодрама, комедия, детектив, 1994] DVDRip, Mvo

salma3

23 | 5

1.45 ГБ

В этой теме нет новых непрочитанных сообщений. Принцесса и семь мастеров кунг-фу / Princess And Seven Kung Fu Masters [боевик, комедия, приключения, 2013] DVDRip, Avo

Dracon

116 | 5

1.38 ГБ

В этой теме нет новых непрочитанных сообщений. Принцесса де Монпансье / The Princess of Montpensier / La princesse de Montpensier [драма, мелодрама, исторический, 2010] BDRip, Dub

salma3

9 | 3

1.46 ГБ


Начать новую тему Ответить на тему  [ 1 сообщение ] 




Для Мосгорсуда, Роскомнадзора и рекламодателей:: mosgorsud-torrent[собачка]yandex.ru