Торрент файл
скачать торрент магнет ссылка Добавлен: 07 окт 2016, 01:21
Размер: 640.24 МБ
Сидеров: 6
Личеров: 4
Автор

СообщениеДобавлено: 07 окт 2016, 01:21 

Не в сети
Дата регистрации:
28 сен 2016, 18:10
Спасибо: 62 / 0
Сообщения: 1040
Информация о фильме
Название: Гриффины
Оригинальное название: Family Guy
Год выхода: 2016
Жанр: Мультсериал, комедия, пародия, чёрный юмор
Режиссер: Сет МакФарлейн
В ролях: Сет МакФарлейн, Алекс Борштейн, Сет Грин, Мила Кунис, Майк Генри, Дэнни Смит, Патрик Варбертон, Джон Винер, Алек Салкин, Ральф Гармен и др.
О фильме:
"Гриффины" (Family Guy) - анимационное ТВ-Шоу, созданное Сетом МакФарлейном (Seth MacFarlane) для телеканала FOX. Как нетрудно догадаться, главными героями шоу является семейка Гриффинов: тупой, но полный сумашедших идей, составляющих львиную долю шуток сериала, отец семейства Питер; его любящя и терпеливая жена Лойс, всеми силами пытающаяся превратить Гриффинов в нормальную семью; их интеллектуально развитый не по годам, вынашивающий идею мирового господства младший сын Стьюи; дочь-ботаник, обречённая из-за этого на одиночество и непонимание как в школе так и дома, Мэг; и 13-ти летний отсталый в развитии лет на 10, сын Крис. Также полноценным членом семьи является пёс Брайн - склонный к меланхолии эстет, спокойно наблюдающий с бокалом вина в лапе над приключениями Питера и остальных членов семьи (и это при всём притом, что остальные собаки в сериале не являются очеловеченными).


Страна: США
Продолжительность: ~ 22 мин. серия
Перевод: Любительский (многоголосый закадровый) | OMSKBIRD
Файл
Кодек: Xvid
Качество: WEB-DLRip
Видео: AVI, 720x400 (16:9), 23.976 fps, ~ 1700 kbps
Звук: Аудио rus: AC-3, 48 KHz, 2 ch, 192 kbps | OMSKBIRD records
Аудио eng: AC-3, 48 KHz, 2 ch, 192 kbps
Семпл
Присутствует реклама!

General
Complete name : F:Мои ДокументыВидеоРАЗДАЧИГриффиныFamily Guy S15 WEB-DLRip (OMSKBIRD)Family Guy S15E01 WEB-DLRip (OMSKBIRD).avi
Format : AVI
Format/Info : Audio Video Interleave
File size : 320 MiB
Duration : 21mn 35s
Overall bit rate : 2 072 Kbps
Writing application : VirtualDubMod 1.5.10.3 | www.virtualdub-fr.org || (build 2550/release)
Writing library : VirtualDubMod build 2550/release
Video
ID : 0
Format : MPEG-4 Visual
Format profile : Advanced Simple@L5
Format settings, BVOP : 2
Format settings, QPel : No
Format settings, GMC : No warppoints
Format settings, Matrix : Default (MPEG)
Codec ID : XVID
Codec ID/Hint : XviD
Duration : 21mn 35s
Bit rate : 1 674 Kbps
Width : 720 pixels
Height : 400 pixels
Display aspect ratio : 16:9
Frame rate : 23.976 fps
Color space : YUV
Chroma subsampling : 4:2:0
Bit depth : 8 bits
Scan type : Progressive
Compression mode : Lossy
Bits/(Pixel*Frame) : 0.242
Stream size : 258 MiB (81%)
Writing library : XviD 1.2.1 (UTC 2008-12-04)
Audio #1
ID : 1
Format : AC-3
Format/Info : Audio Coding 3
Mode extension : CM (complete main)
Format settings, Endianness : Big
Codec ID : 2000
Duration : 21mn 35s
Bit rate mode : Constant
Bit rate : 192 Kbps
Channel(s) : 2 channels
Channel positions : Front: L R
Sampling rate : 48.0 KHz
Bit depth : 16 bits
Compression mode : Lossy
Stream size : 29.6 MiB (9%)
Alignment : Split accross interleaves
Interleave, duration : 42 ms (1.00 video frame)
Interleave, preload duration : 500 ms
Audio #2
ID : 2
Format : AC-3
Format/Info : Audio Coding 3
Mode extension : CM (complete main)
Format settings, Endianness : Big
Codec ID : 2000
Duration : 21mn 35s
Bit rate mode : Constant
Bit rate : 192 Kbps
Channel(s) : 2 channels
Channel positions : Front: L R
Sampling rate : 48.0 KHz
Bit depth : 16 bits
Compression mode : Lossy
Stream size : 29.6 MiB (9%)
Alignment : Split accross interleaves
Interleave, duration : 42 ms (1.00 video frame)
Interleave, preload duration : 500 ms
[/hide]
Перевод • Дарья Жмура
Роли озвучивали • Константин Погодаев, Анна Тух, Станислав Черсков
Звукорежиссер • Павел Квентов
Постер • Ксения Просветова
Релиз подготовил • Gater
Внимание! Раздача ведётся путём добавления новых серий; при каждом добавлении создаётся новый торрент. Чтобы начать докачку новой серии, пользователям необходимо сделать следующее:
Остановить скачивание.
Удалить старый торрент у себя из клиента (старые серии удалять не надо).
Скачать новый торрент и запустить его у себя в клиенте вместо старого, при этом указать клиенту путь в старую папку куда и должно происходить скачивание новых серий.
Ваш клиент при этом должен произвести хеширование (проверку) старой папки (если не производит сам - помогите ему сделать это), и будет докачивать только те серии которых у вас ещё нет. Старые серии при этом не удаляются, а продолжают раздаваться!
Eсли вы уже удалили старые серии, то предотвратить повторную закачку старых серий можно, отжав галочку в соответсвующих местах при запуске нового торрента. По возможности, желательно не удалять старые серии как можно дольше чтобы релизёр не столько продолжал раздавать старые серии, а смог сконцентрироваться на новых.




реклама партнёра


Вернуться к началу
 Профиль Отправить личное сообщение  
 
   Похожие торренты   Автор   Торрент   Размер 
В этой теме нет новых непрочитанных сообщений. Гриффины / Family Guy [15x01 из 20] (Мультсериал, комедия, пародия, чёрный юмор, 2016) WEB-DL 720p | OMSKBIRD

marya111

53 | 0

595.31 МБ

В этой теме нет новых непрочитанных сообщений. Гриффины / Family Guy [15x01 из 20] (Мультсериал, комедия, пародия, чёрный юмор, 2016) WEB-DL 720p | OMSKBIRD

marya111

0 | 0

1.25 ГБ

В этой теме нет новых непрочитанных сообщений. Гриффины (14 сезон: 1-20 серии из 20) / Family Guy [2015, Мультсериал, Комедия, Пародия, WEB-DLRip, Профессиональный (многоголосый, закадровый) - Jaskier]

marya111

54 | 44

5.72 ГБ

В этой теме нет новых непрочитанных сообщений. Гриффины / Family Guy [15x01-02] (Мультфильм, комедия, 2016) HDTVRip | Filiza

marya111

0 | 0

380.79 МБ

В этой теме нет новых непрочитанных сообщений. Гриффины / Family Guy [15x01-03] (Мультфильм, комедия, 2016) HDTVRip-AVC | Filiza

marya111

18 | 4

585.53 МБ

В этой теме нет новых непрочитанных сообщений. Гриффины / Family Guy [15x01-04, 07] (Мультфильм, комедия, 2016) HDTV-AVC | Filiza

marya111

44 | 35

961.7 МБ

В этой теме нет новых непрочитанных сообщений. Гриффины / Family Guy [15x01-04] (Мультфильм, комедия, 2016) HDTV 720p | Filiza

marya111

56 | 20

1.63 ГБ


Начать новую тему Ответить на тему  [ 1 сообщение ] 




Для Мосгорсуда, Роскомнадзора и рекламодателей:: mosgorsud-torrent[собачка]yandex.ru