Торрент файл
скачать торрент магнет ссылка Добавлен: 06 окт 2016, 11:30
Размер: 2.58 ГБ
Сидеров: 0
Личеров: 0
Автор

СообщениеДобавлено: 06 окт 2016, 11:30 

Не в сети
Супермодератор
Аватара пользователя
Дата регистрации:
15 фев 2012, 16:44
Возраст: 27
Спасибо: 5139 / 2090
Сообщения: 17432
Год выхода: 1999
Жанр: мультфильм, фантастика, комедия, приключения
Режиссер: Брэд Бёрд

В ролях: Эли Мариентал, Вин Дизель, Дженнифер Энистон, Гарри Конник мл., Джеймс Гэммон, Клорис Личмен, Кристофер МакДональд, Джон Махони, М. Эммет Уолш, Джек Эйнджел

О фильме:
Жители тихой американской провинции становятся свидетелями ослепительной вспышки и падения огромного летающего объекта. Спустя несколько дней мальчуган по имени Хогарт Хьюз находит в окрестностях гигантского робота, прилетевшего на Землю из далекой космической галактики. Несмотря на свой грозный вид, инопланетный гость оказывается добрейшим созданием. Между ним и отважным мальчишкой завязывается настоящая дружба. Но узнавшие о существовании робота правительство и военные решили уничтожить пришельца. Хогарт — единственный, кто может спасти стального гиганта…



Страна: США
Продолжительность: 01:29:58
Перевод: Дублированный

Файл
Кодек: H.264
Качество: BDRip 720р от SuperMin
Видео: 1280x536 (2.40:1), 3080 kbps, 23.976 fps
Звук:
Русский (AC-3, 6ch, 384 kbps)
Английский (AC-3, 6ch, 640 kbps)
Субтитры: русские (форс., полные), английские
x264 [info]: frame I:1212 Avg QP:13.87 size:117071
x264 [info]: frame P:35415 Avg QP:16.45 size: 29868
x264 [info]: frame B:92809 Avg QP:18.52 size: 9467
x264 [info]: consecutive B-frames: 5.9% 4.9% 12.3% 28.5% 24.1% 18.4% 3.6% 1.5% 0.7%
encoded 129436 frames, 7.79 fps, 3079.75 kb/s
General
Unique ID : 232330845182118235969693589871171146860 (0xAEC94B0D7543337496A0A3667F5B146C)
Complete name : E:МУЛЬТЫСтальной.гигант.1999.x264.BDRip.720p.mkv
Format : Matroska
Format version : Version 4 / Version 2
File size : 2.58 GiB
Duration : 1h 29mn
Overall bit rate : 4 106 Kbps
Movie name : Стальной гигант (1999) - #LORDKILL#
Encoded date : UTC 2016-10-05 03:49:22
Writing application : mkvmerge v8.0.0 ('Til The Day That I Die') 64bit
Writing library : libebml v1.3.1 + libmatroska v1.4.2
Video
ID : 1
Format : AVC
Format/Info : Advanced Video Codec
Format profile : High@L4.1
Format settings, CABAC : Yes
Format settings, ReFrames : 10 frames
Codec ID : V_MPEG4/ISO/AVC
Duration : 1h 29mn
Bit rate : 3 080 Kbps
Width : 1 280 pixels
Height : 536 pixels
Display aspect ratio : 2.40:1
Frame rate mode : Constant
Frame rate : 23.976 (24000/1001) fps
Color space : YUV
Chroma subsampling : 4:2:0
Bit depth : 8 bits
Scan type : Progressive
Bits/(Pixel*Frame) : 0.187
Stream size : 1.94 GiB (75%)
Writing library : x264 core 146 r2538 121396c
Encoding settings : cabac=1 / ref=10 / deblock=1:-1:-1 / analyse=0x3:0x113 / me=umh / subme=11 / psy=1 / psy_rd=1.00:0.10 / mixed_ref=1 / me_range=32 / chroma_me=1 / trellis=2 / 8x8dct=1 / cqm=0 / deadzone=21,11 / fast_pskip=0 / chroma_qp_offset=-3 / threads=12 / lookahead_threads=2 / sliced_threads=0 / nr=0 / decimate=1 / interlaced=0 / bluray_compat=0 / constrained_intra=0 / bframes=8 / b_pyramid=2 / b_adapt=2 / b_bias=0 / direct=3 / weightb=1 / open_gop=0 / weightp=2 / keyint=240 / keyint_min=121 / scenecut=40 / intra_refresh=0 / rc=2pass / mbtree=0 / bitrate=3080 / ratetol=1.0 / qcomp=0.60 / qpmin=0 / qpmax=69 / qpstep=4 / cplxblur=20.0 / qblur=0.5 / ip_ratio=1.40 / pb_ratio=1.30 / aq=1:1.00
Default : Yes
Forced : No
Audio #1
ID : 2
Format : AC-3
Format/Info : Audio Coding 3
Mode extension : CM (complete main)
Format settings, Endianness : Big
Codec ID : A_AC3
Duration : 1h 29mn
Bit rate mode : Constant
Bit rate : 384 Kbps
Channel(s) : 6 channels
Channel positions : Front: L C R, Side: L R, LFE
Sampling rate : 48.0 KHz
Frame rate : 31.250 fps (1536 spf)
Compression mode : Lossy
Stream size : 247 MiB (9%)
Title : Дубляж
Language : Russian
Default : Yes
Forced : No
Audio #2
ID : 3
Format : AC-3
Format/Info : Audio Coding 3
Mode extension : CM (complete main)
Format settings, Endianness : Big
Codec ID : A_AC3
Duration : 1h 29mn
Bit rate mode : Constant
Bit rate : 640 Kbps
Channel(s) : 6 channels
Channel positions : Front: L C R, Side: L R, LFE
Sampling rate : 48.0 KHz
Frame rate : 31.250 fps (1536 spf)
Compression mode : Lossy
Stream size : 412 MiB (16%)
Language : English
Default : No
Forced : No
Text #1
ID : 4
Format : UTF-8
Codec ID : S_TEXT/UTF8
Codec ID/Info : UTF-8 Plain Text
Duration : 39mn 55s
Bit rate : 4 bps
Count of elements : 25
Stream size : 1.26 KiB (0%)
Title : форс.
Language : Russian
Default : Yes
Forced : No
Text #2
ID : 5
Format : UTF-8
Codec ID : S_TEXT/UTF8
Codec ID/Info : UTF-8 Plain Text
Duration : 1h 27mn
Bit rate : 67 bps
Count of elements : 918
Stream size : 43.4 KiB (0%)
Title : полные
Language : Russian
Default : No
Forced : No
Text #3
ID : 6
Format : UTF-8
Codec ID : S_TEXT/UTF8
Codec ID/Info : UTF-8 Plain Text
Duration : 1h 19mn
Bit rate : 53 bps
Count of elements : 1001
Stream size : 31.1 KiB (0%)
Language : English
Default : No
Forced : No


_________________



реклама партнёра


Вернуться к началу
 Профиль Отправить личное сообщение  
 
   Похожие торренты   Автор   Торрент   Размер 
В этой теме нет новых непрочитанных сообщений. Кингсглейв: Последняя фантазия XV (мультфильм, фантастика, фэнтези, приключения, 2016) BDRip 720р от SuperMin | P | Лицензия

marya111

0 | 0

3.93 ГБ

В этой теме нет новых непрочитанных сообщений. Кингсглейв: Последняя фантазия XV / Kingsglaive: Final Fantasy XV (мультфильм, фантастика, фэнтези, приключения, 2016) BDRip HEVC 720р от SuperMin | Лицензия

marya111

56 | 3

2.59 ГБ

В этой теме нет новых непрочитанных сообщений. Пришельцы в Америке / Just Visiting [Фантастика, комедия, приключения, 2001] BDRip 720р, Dub+Avo+Sub

salma3

13 | 4

8.97 ГБ

В этой теме нет новых непрочитанных сообщений. Пришельцы в Америке / Just Visiting [Фантастика, комедия, приключения, 2001] BDRip 720р, Dub+Avo+Sub

salma3

127 | 13

4.38 ГБ

В этой теме нет новых непрочитанных сообщений. Бигглз: Приключения во времени / Biggles [фантастика, приключения, семейный, военный, 1986] BDRip 720р, Mvo+Avo

salma3

13 | 4

6.79 ГБ

В этой теме нет новых непрочитанных сообщений. Приключения мистера Пибоди и Шермана / Mr. Peabody & Sherman [Мультфильм, Фантастика, Комедия, Приключения, Семейный, 2014] BDRip 720p, Dub+Sub [Blu-ray CEE]

Dracon

5 | 2

6.43 ГБ

В этой теме нет новых непрочитанных сообщений. Приключения мистера Пибоди и Шермана / Mr. Peabody & Sherman [Мультфильм, Фантастика, Комедия, Приключения, Семейный, 2014] BDRip 1080p, Dub+Sub [Blu-ray CEE]

Dracon

104 | 8

8.54 ГБ


Начать новую тему Ответить на тему  [ 1 сообщение ] 




Для Мосгорсуда, Роскомнадзора и рекламодателей:: mosgorsud-torrent[собачка]yandex.ru