Торрент файл
скачать торрент магнет ссылка Добавлен: 06 окт 2016, 01:59
Размер: 1.49 ГБ
Сидеров: 0
Личеров: 0
Автор

СообщениеДобавлено: 06 окт 2016, 01:59 

Не в сети
Дата регистрации:
28 сен 2016, 18:10
Спасибо: 55 / 0
Сообщения: 942
Информация о фильме
Название: Симпсоны
Оригинальное название: The Simpsons
Год выхода: 2016
Жанр: Комедия, сатира
Режиссер: Марк Керклэнд, Стивен Дин Мур, Боб Андерсон
В ролях: Дэн Кастелланета, Джули Кавнер, Нэнси Картрайт, Ярдли Смит, Гарри Ширер, Хэнк Азария, Памела Хейден, Тресс МакНилл, Карл Видерготт, Мэгги Росвэлл и др.
О фильме:
«Симпсоны» - это пародия на всех и вся, и на типичный американский уклад жизни в целом. Главные герои этого мультсериала - показательная в своей типичности семья Симпсонов - обжора и лежебока, недалекий Гомер, его жена-умница домохозяйка Мардж, их дети сорванец Барт, одаренная умная девочка Лиза и совсем еще младенец Мэгги. Каждая серия не только богата юмором, но и высмеивает одну из волнующих современного человека тем, так что сериал с успехом пережил более 25 сезонов и продолжает успешное шествие по экранам. Отрезки, шутки, сами герои Симпсонов стали неотъемлемой частью современной поп-культуры, а их имена стали именами нарицательными.

Страна: США
Продолжительность: ~ 00:23:00 серия
Перевод: Любительский (многоголосый закадровый) | OMSKBIRD records
Файл
Кодек: MPEG-4 AVC/H.264
Качество: HDTVRip 720p
Видео: AVC, 1280x720 (16:9), 23.976 fps, ~ 3000 kbps
Звук:
Аудио rus: AC-3, 48 KHz, 6 ch, 384 kbps | OMSKBIRD records
Аудио eng: AC-3, 48 KHz, 6 ch, 448 kbps
Субтитры: Русские, английские
Семпл
Релиз-группа: OmskBird
Роли озвучивали • Ольга Федорова, Павел Ярощик, Станислав Черсков, Артем Мустаев, Алена Соколова
Перевод • Дарья Жмура
Звукорежиссер • Павел Квентов
01. Monty Burns' Fleeing Circus
General
Unique ID : 173311878044831871963594771465044581381 (0x8262A74FFFFFA7FEBBE7E1B927115C05)
Complete name : G:FilmsThe.Simpsons.S28.720p.OmskBirdThe.Simpsons.S28E01.720p.HDTVRip.OmskBird.mkv
Format : Matroska
Format version : Version 4 / Version 2
File size : 581 MiB
Duration : 21mn 0s
Overall bit rate : 3 870 Kbps
Encoded date : UTC 2016-09-27 05:28:30
Writing application : mkvmerge v9.4.2 ('So High') 64bit
Writing library : libebml v1.3.4 + libmatroska v1.4.5
Video
ID : 1
Format : AVC
Format/Info : Advanced Video Codec
Format profile : High@L4.1
Format settings, CABAC : Yes
Format settings, ReFrames : 5 frames
Codec ID : V_MPEG4/ISO/AVC
Duration : 21mn 0s
Bit rate : 3 036 Kbps
Width : 1 280 pixels
Height : 720 pixels
Display aspect ratio : 16:9
Frame rate mode : Constant
Frame rate : 23.976 (24000/1001) fps
Color space : YUV
Chroma subsampling : 4:2:0
Bit depth : 8 bits
Scan type : Progressive
Bits/(Pixel*Frame) : 0.137
Stream size : 456 MiB (78%)
Writing library : x264 core 148 r2705 3f5ed56
Encoding settings : cabac=1 / ref=5 / deblock=1:-3:-3 / analyse=0x3:0x113 / me=umh / subme=8 / psy=1 / psy_rd=1.05:0.00 / mixed_ref=1 / me_range=16 / chroma_me=1 / trellis=1 / 8x8dct=1 / cqm=0 / deadzone=21,11 / fast_pskip=1 / chroma_qp_offset=-2 / threads=18 / lookahead_threads=3 / sliced_threads=0 / nr=0 / decimate=1 / interlaced=0 / bluray_compat=0 / constrained_intra=0 / bframes=3 / b_pyramid=2 / b_adapt=2 / b_bias=0 / direct=3 / weightb=1 / open_gop=0 / weightp=2 / keyint=250 / keyint_min=23 / scenecut=40 / intra_refresh=0 / rc_lookahead=50 / rc=crf / mbtree=1 / crf=18.0 / qcomp=0.60 / qpmin=0 / qpmax=69 / qpstep=4 / ip_ratio=1.40 / aq=3:0.80
Language : English
Default : Yes
Forced : No
Audio #1
ID : 2
Format : AC-3
Format/Info : Audio Coding 3
Mode extension : CM (complete main)
Format settings, Endianness : Big
Codec ID : A_AC3
Duration : 21mn 0s
Bit rate mode : Constant
Bit rate : 384 Kbps
Channel(s) : 6 channels
Channel positions : Front: L C R, Side: L R, LFE
Sampling rate : 48.0 KHz
Frame rate : 31.250 fps (1536 spf)
Compression mode : Lossy
Stream size : 57.7 MiB (10%)
Title : OmskBird 5.1
Language : Russian
Default : Yes
Forced : No
Audio #2
ID : 3
Format : AC-3
Format/Info : Audio Coding 3
Mode extension : CM (complete main)
Format settings, Endianness : Big
Codec ID : A_AC3
Duration : 21mn 0s
Bit rate mode : Constant
Bit rate : 448 Kbps
Channel(s) : 6 channels
Channel positions : Front: L C R, Side: L R, LFE
Sampling rate : 48.0 KHz
Frame rate : 31.250 fps (1536 spf)
Compression mode : Lossy
Stream size : 67.3 MiB (12%)
Title : eng
Language : English
Default : No
Forced : No


Релиз от: Grandfather61




реклама партнёра


Вернуться к началу
 Профиль Отправить личное сообщение  
 
   Похожие торренты   Автор   Торрент   Размер 
В этой теме нет новых непрочитанных сообщений. Симпсоны / The Simpsons [28x01-04 из 22] (Комедия, сатира, 2016) WEB-DLRip | VO-production

marya111

0 | 0

1.23 ГБ

В этой теме нет новых непрочитанных сообщений. Симпсоны / The Simpsons [28x01-04 из 22] (Комедия, сатира, 2016) WEB-DLRip | VO-production

marya111

0 | 0

1004.75 МБ

В этой теме нет новых непрочитанных сообщений. Симпсоны / The Simpsons [26х01-14 из 22] (Мэтт Гроунинг) [2014, Комедия, сатира, WEB-DL 720p | OmskBird]

Nickolas3435

19 | 21

14.35 ГБ

В этой теме нет новых непрочитанных сообщений. Симпсоны / The Simpsons [27x01-10 из 22] (Мэтт Гроунинг) [Комедия, сатира, 2015] WEB-DL 720p [OMSKBIRD records]

marya111

0 | 0

7.46 ГБ

В этой теме нет новых непрочитанных сообщений. Симпсоны / The Simpsons [27x01-13 из 22] (Мэтт Гроунинг) [Комедия, сатира, 2015] WEB-DL 720p [OMSKBIRD records]

Dracon

0 | 1

9.58 ГБ

В этой теме нет новых непрочитанных сообщений. Симпсоны / The Simpsons [28x01 из 22] ( комедия, 2016) WEB-DL 720p | Jaskier

marya111

0 | 0

781.45 МБ

В этой теме нет новых непрочитанных сообщений. Симпсоны / The Simpsons [28x01 из 22] (комедия, 2016) WEB-DL 720p | Jaskier

marya111

13 | 9

3.71 ГБ


Начать новую тему Ответить на тему  [ 1 сообщение ] 




Для Мосгорсуда, Роскомнадзора и рекламодателей:: mosgorsud-torrent[собачка]yandex.ru