Торрент файл
скачать торрент магнет ссылка Добавлен: 06 окт 2016, 01:58
Размер: 5.33 ГБ
Сидеров: 0
Личеров: 0
Автор

СообщениеДобавлено: 06 окт 2016, 01:58 

Не в сети
Дата регистрации:
28 сен 2016, 18:10
Спасибо: 208 / 0
Сообщения: 2000
Название: Бумажки
Год выхода: 2015-2016
Страна: Россия, Паровоз
Жанр: Мультсериал, детский, семейный, приключения
Продолжительность: 62 x ~ 00:05:30
Язык: русский
Режиссер: Алексей Миронов, Артур Толстобров, Кирилл Кравченко,
В ролях: Андрей Рожков
О фильме:
Новый обучающий анимационный сериал для детей, рассказывающий о приключениях бумажных героев в мире, который тоже целиком состоит из бумаги. Мультфильм учит детей доброте и в нём есть практичные вставки, где показано как сделать из бумаги и клея персонажей сериала. Задумка авторов состоит в том, чтобы помочь творческому и умственному развитию малышей.
01. Заяц или кот
02. С днем рождения, птенчики!
03. Игрушка для Зюйд-веста
04. Лучший изобретатель
05. На высоте
06. Букет для королевы
07. Под крышей дома
08. Королева хочет домой
09. Пикник в обеденное время
10. Пришелец с Фольгундии
11. Полезное насекомое
12. Снова праздник!
13. Подвиг капитана Тюка
14. Новый сосед
15. Живые цветы
16. Знакомый незнакомец
17. За бумажным морем
18. Приходите на концерт!
19. Розовая клумба
20. Звездная ночь
21. А был ли птенчик
22. Крокодиловы слезы
23. Удачный кадр
24. Сокровища бумажной пещеры
25. Серенький волчок
26. Перевернутая история
27. Дом с привидениями
28. Бумажное солнце
29. Бумажный концерт
30. Загадочное письмо
31. Птица удачи
32. Таинственный остров
33. Радужное озеро
34. Зимой и летом
35. Куриная память
36. По ту сторону земли
37. Откуда дует ветер
38. На всякий бумажный случай
39. Путешествие в Бумпариж
40. Рекордсмены
41. Грибы или ботинки
42. Бумажные желания
43. Как стать звездой
44. На вкус и цвет
45. Невидимка
46. Землетрясение
47. Гостелюбивое растение
48. Вечеринка удалась!
49. Бумажные слезы
50. О чем молчит рыбка
51. Чудеса дрессировки
52. Тише едешь - дальше будешь
53. Лютики-цветочки
54. Няньки
55. Бумажная приманка!
56. Будь здоров, дятел!
57. Робот
58. Бумажный детектив
59. Весёлый учитель
60. Небумажное настроение
61. Сюрприз
62. Блестящая операция



Доп. информация: премьера (РФ) - 21 марта 2015, «Мульт в кино»
Семпл


Файл
Формат: MP4
Качество: WEB-DLRip 1080p
Видео: MPEG-4-AVC, High@L4, 1920x1080, 25.000 fps, 2 790 Kbps
Звук: AAC-LC 2.0, 192 Kbps, 44.1 KHz
Субтитры: нет
61. Сюрприз. Full-HD-merci-.mp4
Формат : MPEG-4
Профиль формата : Base Media
Идентификатор кодека : isom (isom/mp42)
Размер файла : 118 Мбайт
Продолжительность : 5 м. 30 с.
Режим общего битрейта : Переменный
Общий поток : 2988 Кбит/сек
Дата кодирования : UTC 2016-10-03 11:16:12
Дата пометки : UTC 2016-10-03 11:16:12
Программа кодирования : My MP4Box GUI 0.6.0.6
Видео
Идентификатор : 1
Формат : AVC
Формат/Информация : Advanced Video Codec
Профиль формата : High@L4
Параметр CABAC формата : Да
Параметр ReFrames формата : 2 кадра
Идентификатор кодека : avc1
Идентификатор кодека/Информация : Advanced Video Coding
Продолжительность : 5 м. 30 с.
Битрейт : 2790 Кбит/сек
Ширина : 1920 пикселей
Высота : 1080 пикселей
Соотношение сторон : 16:9
Режим частоты кадров : Постоянный
Частота кадров : 25,000 кадров/сек
Цветовое пространство : YUV
Субдискретизация насыщенности : 4:2:0
Битовая глубина : 8 бит
Тип развёртки : Прогрессивная
Бит/(Пиксели*Кадры) : 0.054
Размер потока : 110 Мбайт (93%)
Язык : English
Дата кодирования : UTC 2016-10-03 11:16:12
Дата пометки : UTC 2016-10-03 11:16:12
Цветовой диапазон : Limited
Основные цвета : BT.709
Характеристики трансфера : BT.709
Коэффициенты матрицы : BT.709
Аудио
Идентификатор : 2
Формат : AAC
Формат/Информация : Advanced Audio Codec
Профиль формата : LC
Идентификатор кодека : 40
Продолжительность : 5 м. 30 с.
Вид битрейта : Переменный
Битрейт : 192 Кбит/сек
Каналы : 2 канала
Расположение каналов : Front: L R
Частота : 44,1 КГц
Частота кадров : 43,066 кадра/сек (1024 spf)
Метод сжатия : С потерями
Размер потока : 7,56 Мбайт (6%)
Язык : English
Дата кодирования : UTC 2016-10-03 11:16:12
Дата пометки : UTC 2016-10-03 11:16:12
mdhd_Duration : 330002


Релиз от:
Автор релиза: /




реклама партнёра


Вернуться к началу
 Профиль Отправить личное сообщение  
 
   Похожие торренты   Автор   Торрент   Размер 
В этой теме нет новых непрочитанных сообщений. Три кота [01-38] ( Мультсериал, детский, приключения, комедия, 2015-2016) WEB-DLRip от ExKinoRay

marya111

49 | 11

2.21 ГБ

В этой теме нет новых непрочитанных сообщений. Три кота [01-39] ( Мультсериал, детский, приключения, комедия, 2015-2016) WEB-DLRip 720p от ExKinoRay

marya111

78 | 13

1.6 ГБ

В этой теме нет новых непрочитанных сообщений. Три кота [01-38] (Мультсериал, детский, приключения, комедия, 2015-2016) WEB-DLRip 720p от ExKinoRay

marya111

120 | 37

1.55 ГБ

В этой теме нет новых непрочитанных сообщений. 10 друзей Кролика [01x01-20 из 92] (Мультсериал, приключения, детский, семейный, 2015) WEB-DL 1080p от ExKinoRay

marya111

30 | 15

3.16 ГБ

В этой теме нет новых непрочитанных сообщений. Тима и Тома [01-41] (Мультсериал, рисованный, детский, комедия, приключения, 2015-2016) WEB-DLRip от ExKinoRay

marya111

51 | 12

2 ГБ

В этой теме нет новых непрочитанных сообщений. Колобанга. Только для пользователей интернета [s01,s02] ( Мультсериал, приключения, детектив, детский, 2015-2016) WEB-DLRip от ExKinoRay

marya111

28 | 11

3.94 ГБ

В этой теме нет новых непрочитанных сообщений. Буба (booba) [1-13 + Бонусы] (Мультсериал, детский, приключения, комедия, 2014-2016) WEB-DLRip 1080p от ExKinoRay

marya111

138 | 17

975.38 МБ


Начать новую тему Ответить на тему  [ 1 сообщение ] 




Для Мосгорсуда, Роскомнадзора и рекламодателей:: mosgorsud-torrent[собачка]yandex.ru