Торрент файл
скачать торрент магнет ссылка Добавлен: 05 окт 2016, 01:34
Размер: 1.96 ГБ
Сидеров: 0
Личеров: 0
Автор

СообщениеДобавлено: 05 окт 2016, 01:34 

Не в сети
Дата регистрации:
28 сен 2016, 18:10
Спасибо: 60 / 0
Сообщения: 1019
Название: Ангел Бэби (Angel Baby)
Год выхода: 2015-2016
Страна: Россия, РИА "Панда"
Жанр: Мультсериал, рисованный, детский, обучающий
Продолжительность: 23 ~ 00:06:30
Язык: русский
Режиссер: Ринат Газизов
В ролях: Валерий Соловьёв, Ксения Бржезовская, Владимир Постников, Елизавета Бирюкова, Григорий Илларионов
О фильме:
Как известно, ангелы прилетают и исчезают внезапно. Прилетают для того, чтобы помочь своим друзьям, исполнить их мечты и желания. Часто ангелам приходится переносить ребят во времени или в пространстве. С ангелами всё возможно! Но любое путешествие — это не просто приключение, но и открытие. А еще — полезный и мудрый урок.
s1e01. Светлая мысль
s1e02. Рыцарский поступок
s1e03. Абы кабы
s1e04. Торто Робот
s1e05. Чудеса в рюкзаке
s1e06. Опасное плавание
s1e07. Ночная сказка
s1e08. Каменный век
s1e09. Парк аттракционов
s1e10. Сэр Великан
s1e11. Зеркало жизни
s1e12. Алле-ап
s1e13. Настоящая победа
s1e14. Просыпайтесь, малыши
s1e15. Дружная команда
s1e16. Важная профессия
s2e17. Тарзанка
s2e18. След в истории
s2e19. Не цари в природе
s2e20. Лайки
s2e21. Золотая рыбка, не простая
s2e22. Сладкая история
s2e23. Эврика!



Доп. информация:
Официальный сайт / Семпл


Файл
Формат: AVI
Качество: WEB-DLRip
Видео: 720x400 (1.80:1), 25 fps, XviD build 65 ~1600 kbps avg, 0.22 bit/pixel
Аудио: 48 kHz, AC3 Dolby Digital, 2/0 (L,R) ch, ~192.00 kbps avg
Субтитры: нет
s2e23. Эврика! XviD-merci-.avi
Формат : AVI
Формат/Информация : Audio Video Interleave
Размер файла : 86,2 Мбайт
Продолжительность : 6 м. 41 с.
Общий поток : 1803 Кбит/сек
Программа кодирования : VirtualDubMod 1.5.10.3 | www.virtualdub-fr.org || (build 2550/release)
Библиотека кодирования : VirtualDubMod build 2550/release
Видео
Идентификатор : 0
Формат : MPEG-4 Visual
Профиль формата : Advanced Simple@L5
Параметр BVOP формата : 1
Параметр QPel формата : Нет
Параметр GMC формата : Без точки перехода
Параметр матрицы формата : Default (MPEG)
Идентификатор кодека : XVID
Идентификатор кодека/Подсказка : XviD
Продолжительность : 6 м. 41 с.
Битрейт : 1601 Кбит/сек
Ширина : 720 пикселей
Высота : 400 пикселей
Соотношение сторон : 16:9
Частота кадров : 25,000 кадров/сек
Цветовое пространство : YUV
Субдискретизация насыщенности : 4:2:0
Битовая глубина : 8 бит
Тип развёртки : Прогрессивная
Метод сжатия : С потерями
Бит/(Пиксели*Кадры) : 0.222
Размер потока : 76,5 Мбайт (89%)
Библиотека кодирования : XviD 65
Аудио
Идентификатор : 1
Формат : AC-3
Формат/Информация : Audio Coding 3
Расширение режима : CM (complete main)
Параметр Endianness формата : Big
Идентификатор кодека : 2000
Продолжительность : 6 м. 41 с.
Вид битрейта : Постоянный
Битрейт : 192 Кбит/сек
Каналы : 2 канала
Расположение каналов : Front: L R
Частота : 48,0 КГц
Частота кадров : 31,250 кадров/сек (1536 spf)
Метод сжатия : С потерями
Размер потока : 9,18 Мбайт (11%)
Выравнивание : Разделение по промежуткам
Продолжительность промежутка : 40 мс. (1,00 видеокадр)
Время предзагрузки промежутка : 500 мс.


Релиз от:
Автор релиза: /




реклама партнёра


Вернуться к началу
 Профиль Отправить личное сообщение  
 
   Похожие торренты   Автор   Торрент   Размер 
В этой теме нет новых непрочитанных сообщений. Домовёнок Плюх / PLUH [01x01-20] (Мультсериал, детский, рисованный, комедия, 2014-2015) WEB-DL 1080p от ExKinoRay

marya111

39 | 6

753.4 МБ

В этой теме нет новых непрочитанных сообщений. Киока / Kioka [01-11] ( Мультсериал, детский, обучающий, познавательный, 2015) WEB-DLRip 1080p от ExKinoRay | D

marya111

4 | 2

1.11 ГБ

В этой теме нет новых непрочитанных сообщений. Бумажки [01-62] (Мультсериал, детский, семейный, приключения, 2015-2016) WEB-DLRip 1080p от ExKinoRay

marya111

0 | 0

5.33 ГБ

В этой теме нет новых непрочитанных сообщений. 10 друзей Кролика [01x01-20 из 92] (Мультсериал, приключения, детский, семейный, 2015) WEB-DL 1080p от ExKinoRay

marya111

17 | 12

3.16 ГБ

В этой теме нет новых непрочитанных сообщений. Джинглики [1 сезон: 1 серия] (Антон Верещагин) [Мультсериал, рисованный, детский, 2015] WEB-DLRip

Dracon

404 | 23

143.41 МБ

В этой теме нет новых непрочитанных сообщений. Джинглики [01-06] (Мультсериал, детский, 2015) WEB-DLRip 720p от ExKinoRay

marya111

0 | 0

915.03 МБ

В этой теме нет новых непрочитанных сообщений. Буба (booba) [1-13 + Бонусы] (Мультсериал, детский, приключения, комедия, 2014-2016) WEB-DLRip 1080p от ExKinoRay

marya111

21 | 5

975.38 МБ


Начать новую тему Ответить на тему  [ 1 сообщение ] 




Для Мосгорсуда, Роскомнадзора и рекламодателей:: mosgorsud-torrent[собачка]yandex.ru