Торрент файл
скачать торрент магнет ссылка Добавлен: 30 сен 2016, 01:00
Размер: 3.93 ГБ
Сидеров: 0
Личеров: 0
Автор

СообщениеДобавлено: 30 сен 2016, 01:00 

Не в сети
Дата регистрации:
28 сен 2016, 18:10
Спасибо: 208 / 0
Сообщения: 2000
Информация о фильме
Название: Кингсглейв: Последняя фантазия XV
Оригинальное название: Kingsglaive: Final Fantasy XV
Год выхода: 2016
Жанр: мультфильм, фантастика, фэнтези, приключения
Режиссер: Такэси Нодзуэ
В ролях: Аарон Пол, Лина Хиди, Шон Бин, Нейл Ньюбон, Аманда Пиери, Джон Кэмплинг, Адриан Буше, Андреа Тивадар
О фильме:
Волшебное королевство Люцис является домом для священного Кристалла, но враждебная империя Нифльхейм не остановится ни перед чем, чтобы захватить реликвию. Король Люциса Регис возглавляет элитный отряд солдат, именуемых «Кингсглейв». Вооружившись магией короля, Никс Ульрик и его верные товарищи из Кингсглейв становятся на защиту столицы Инсомния, чтобы остановить неумолимое наступление имперской армии. Перед превосходящими силами Нифльхейма Королю Регису ничего не остаётся, как согласиться на ультиматум, уступив все свои земли за пределами столицы и женив своего сына Ноктиса на Леди Лунафрее, бывшей принцессе ныне захваченной земли Тенебра. В разбушевавшейся войне махинации Нифльхейма превращают Инсомнию в грандиозное поле битвы, затягивая Никса в борьбу за выживание всего королевства...

Страна: Япония
Студия: Square Enix Co. Ltd., Square USA
Продолжительность: 01:55:33
Перевод: Профессиональный многоголосый закадровый
Файл
Кодек: H.264
Качество: BDRip 720р от SuperMin
Видео: 1280x536 (2.40:1), 2722 kbps, 23.976 fps
Звук:
Русский (AC3, 6 ch, 640 Кбит/с)
Английский (DTS, 6 ch, 1509 Кбит/с)
Субтитры: Русские, английские, эстонские
x264 [info]: frame I:1738 Avg QP:16.15 size: 70481
x264 [info]: frame P:48169 Avg QP:18.67 size: 25164
x264 [info]: frame B:116341 Avg QP:21.91 size: 8806
x264 [info]: consecutive B-frames: 6.1% 8.4% 16.2% 26.2% 19.7% 20.1% 2.1% 0.6% 0.5%
encoded 166248 frames, 7.36 fps, 2721.85 kb/s
General
Unique ID : 175736817169568483967469439657777976083 (0x8435AE0AC4CB16F8B916DE8A9FF25313)
Complete name : E:МУЛЬТЫКингсглейв.Последняя.фантазия.XV.2016.x264.BDRip.720p.mkv
Format : Matroska
Format version : Version 4 / Version 2
File size : 3.93 GiB
Duration : 1h 55mn
Overall bit rate : 4 874 Kbps
Movie name : Кингсглейв: Последняя фантазия XV (2016) - #LORDKILL#
Encoded date : UTC 2016-09-24 07:23:21
Writing application : mkvmerge v8.0.0 ('Til The Day That I Die') 64bit
Writing library : libebml v1.3.1 + libmatroska v1.4.2
Video
ID : 1
Format : AVC
Format/Info : Advanced Video Codec
Format profile : High@L4.1
Format settings, CABAC : Yes
Format settings, ReFrames : 11 frames
Codec ID : V_MPEG4/ISO/AVC
Duration : 1h 55mn
Bit rate : 2 722 Kbps
Width : 1 280 pixels
Height : 536 pixels
Display aspect ratio : 2.40:1
Frame rate mode : Constant
Frame rate : 23.976 (24000/1001) fps
Color space : YUV
Chroma subsampling : 4:2:0
Bit depth : 8 bits
Scan type : Progressive
Bits/(Pixel*Frame) : 0.165
Stream size : 2.20 GiB (56%)
Writing library : x264 core 146 r2538 121396c
Encoding settings : cabac=1 / ref=11 / deblock=1:-1:-1 / analyse=0x3:0x113 / me=umh / subme=11 / psy=1 / psy_rd=1.00:0.10 / mixed_ref=1 / me_range=32 / chroma_me=1 / trellis=2 / 8x8dct=1 / cqm=0 / deadzone=21,11 / fast_pskip=0 / chroma_qp_offset=-3 / threads=12 / lookahead_threads=2 / sliced_threads=0 / nr=0 / decimate=1 / interlaced=0 / bluray_compat=0 / constrained_intra=0 / bframes=8 / b_pyramid=2 / b_adapt=2 / b_bias=0 / direct=1 / weightb=1 / open_gop=0 / weightp=2 / keyint=240 / keyint_min=121 / scenecut=40 / intra_refresh=0 / rc=crf / mbtree=0 / crf=19.0 / qcomp=0.60 / qpmin=0 / qpmax=69 / qpstep=4 / ip_ratio=1.40 / pb_ratio=1.30 / aq=1:1.00
Default : Yes
Forced : No
Audio #1
ID : 2
Format : AC-3
Format/Info : Audio Coding 3
Mode extension : CM (complete main)
Format settings, Endianness : Big
Codec ID : A_AC3
Duration : 1h 55mn
Bit rate mode : Constant
Bit rate : 640 Kbps
Channel(s) : 6 channels
Channel positions : Front: L C R, Side: L R, LFE
Sampling rate : 48.0 KHz
Frame rate : 31.250 fps (1536 spf)
Compression mode : Lossy
Stream size : 529 MiB (13%)
Title : Профессиональный многоголосый закадровый
Language : Russian
Default : Yes
Forced : No
Audio #2
ID : 3
Format : DTS
Format/Info : Digital Theater Systems
Mode : 16
Format settings, Endianness : Big
Codec ID : A_DTS
Duration : 1h 55mn
Bit rate mode : Constant
Bit rate : 1 509 Kbps
Channel(s) : 6 channels
Channel positions : Front: L C R, Side: L R, LFE
Sampling rate : 48.0 KHz
Frame rate : 93.750 fps (512 spf)
Bit depth : 16 bits
Compression mode : Lossy
Stream size : 1.22 GiB (31%)
Language : English
Default : No
Forced : No
Text #1
ID : 4
Format : UTF-8
Codec ID : S_TEXT/UTF8
Codec ID/Info : UTF-8 Plain Text
Duration : 1h 55mn
Bit rate : 58 bps
Count of elements : 1091
Stream size : 49.1 KiB (0%)
Language : Russian
Default : Yes
Forced : No
Text #2
ID : 5
Format : UTF-8
Codec ID : S_TEXT/UTF8
Codec ID/Info : UTF-8 Plain Text
Duration : 1h 55mn
Bit rate : 46 bps
Count of elements : 1237
Stream size : 39.4 KiB (0%)
Language : English
Default : No
Forced : No
Text #3
ID : 6
Format : UTF-8
Codec ID : S_TEXT/UTF8
Codec ID/Info : UTF-8 Plain Text
Duration : 1h 55mn
Bit rate : 42 bps
Count of elements : 1084
Stream size : 35.6 KiB (0%)
Language : Estonian
Default : No
Forced : No
Menu
00:00:00.000 : en:
00:12:06.976 : en:
00:15:48.530 : en:
00:20:23.847 : en:
00:25:41.998 : en:
00:32:14.724 : en:
00:39:02.214 : en:
00:43:44.788 : en:
00:50:06.294 : en:
00:54:59.421 : en:
01:02:13.521 : en:
01:12:55.287 : en:
01:21:00.230 : en:
01:26:24.512 : en:
01:37:18.374 : en:
01:41:57.152 : en:




реклама партнёра


Вернуться к началу
 Профиль Отправить личное сообщение  
 
   Похожие торренты   Автор   Торрент   Размер 
В этой теме нет новых непрочитанных сообщений. Кингсглейв: Последняя фантазия XV / Kingsglaive: Final Fantasy XV (мультфильм, фантастика, фэнтези, приключения, 2016) BDRip HEVC 720р от SuperMin | Лицензия

marya111

56 | 3

2.59 ГБ

В этой теме нет новых непрочитанных сообщений. Кингсглейв: Последняя фантазия XV / Kingsglaive: Final Fantasy XV (мультфильм, фантастика, фэнтези, драма, приключения, 2016) BDRip от HQCLUB | P | Лицензия

marya111

0 | 0

2.18 ГБ

В этой теме нет новых непрочитанных сообщений. Кингсглейв: Последняя фантазия XV / Kingsglaive: Final Fantasy XV (Такэси Нодзуэ) [2016, мультфильм, фантастика, фэнтези, драма, приключения, BDRip | Лицензия] mvo

marya111

0 | 0

1.46 ГБ

В этой теме нет новых непрочитанных сообщений. Кингсглейв: Последняя фантазия XV / Kingsglaive: Final Fantasy XV [мультфильм, фантастика, фэнтези, драма, приключения, 2016] WEB-DL 1080p, Dub [iTunes]

marya111

730 | 8

3.96 ГБ

В этой теме нет новых непрочитанных сообщений. Кингсглейв: Последняя фантазия XV / Kingsglaive: Final Fantasy XV (Такэси Нодзуэ) [2016, мультфильм, фантастика, фэнтези, драма, приключения, HDRip | iTunes] mvo

marya111

2 | 2

2.05 ГБ

В этой теме нет новых непрочитанных сообщений. Кингсглейв: Последняя фантазия XV / Kingsglaive: Final Fantasy XV [Мультфильм, фантастика, фэнтези, 2016] WEB-DL 720p, Mvo [iTunes]

salma3

0 | 0

3.72 ГБ

В этой теме нет новых непрочитанных сообщений. Кингсглейв: Последняя фантазия XV / Kingsglaive: Final Fantasy XV [мультфильм, фантастика, фэнтези, 2016] WEB-DLRip, Mvo [iTunes]

salma3

1840 | 555

1.46 ГБ


Начать новую тему Ответить на тему  [ 1 сообщение ] 




Для Мосгорсуда, Роскомнадзора и рекламодателей:: mosgorsud-torrent[собачка]yandex.ru