Торрент файл
скачать торрент магнет ссылка Добавлен: 30 сен 2016, 01:00
Размер: 3.32 ГБ
Сидеров: 342
Личеров: 11
Автор

СообщениеДобавлено: 30 сен 2016, 01:00 

Не в сети
Дата регистрации:
28 сен 2016, 18:10
Спасибо: 57 / 0
Сообщения: 1019
Год выпуска: 2016
Страна: США
Жанр: мультфильм, боевик, комедия, криминал, приключения, семейный
Продолжительность: 01:48:32
Перевод: Професиональный (полное дублирование) [Лицензия]
Cубтитры: нет
Режиссер: Байрон Ховард / Byron Howard, Рич Мур / Rich Moore, Джаред Буш / Jared Bush
В ролях: Джиннифер Гудвин, Джейсон Бейтман, Идрис Эльба, Дженни Слейт, Нейт Торренс, Бонни Хант, Дон Лейк, Томми Чонг, Дж.К. Симмонс, Октавия Спенсер, Алан Тьюдик, Шакира
Описание: Добро пожаловать в Зверополис - современный город, населенный самыми разными животными, от огромных слонов до крошечных мышек. Зверополис разделен на районы, полностью повторяющие естественную среду обитания разных жителей - здесь есть и элитный район Площадь Сахары и неприветливый Тундратаун. В этом городе появляется новый офицер полиции, жизнерадостная зайчиха Джуди Хоппс, которая с первых дней работы понимает, как сложно быть маленькой и пушистой среди больших и сильных полицейских. Джуди хватается за первую же возможность проявить себя, несмотря на то, что ее партнером будет болтливый хитрый лис Ник Уайлд. Вдвоем им предстоит раскрыть сложное дело, от которого будет зависеть судьба всех обитателей Зверополиса.


Качество видео: BDRip 720p (Zootopia.2016.720p.BluRay.DD5.1.x264-VietHD)
Формат видео: MKV
Сборка: Scarabey
Видео: 1280х536 (2,40:1), 23.976 fps, AVC ~3648 kbps avg, 0.222 bit/pixel
Аудио: 48 kHz, AC3 Dolby Digital, 3/2 (L,C,R,l,r) + LFE ch, ~640.00 kbps avg
Zootopia_2016_720p_BDRip_r5_[scarabey.org].mkv
Формат : Matroska
Версия формата : Version 4 / Version 2
Размер файла : 3,32 Гбайт
Продолжительность : 1 ч. 48 м.
Общий поток : 4375 Кбит/сек
Название фильма : F2
Дата кодирования : UTC 2016-08-16 14:34:16
Программа кодирования : mkvmerge v6.1.0 ('Old Devil') built on Mar 4 2013 09:10:42
Библиотека кодирования : libebml v1.3.0 + libmatroska v1.4.0
Attachments : VietHD.log
Видео
Идентификатор : 1
Формат : AVC
Формат/Информация : Advanced Video Codec
Профиль формата : High@L4.1
Параметр CABAC формата : Да
Параметр ReFrames формата : 12 кадров
Идентификатор кодека : V_MPEG4/ISO/AVC
Продолжительность : 1 ч. 48 м.
Битрейт : 3648 Кбит/сек
Ширина : 1280 пикселей
Высота : 536 пикселей
Соотношение сторон : 2,40:1
Режим частоты кадров : Постоянный
Частота кадров : 23,976 (24000/1001) кадра/сек
Цветовое пространство : YUV
Субдискретизация насыщенности : 4:2:0
Битовая глубина : 8 бит
Тип развёртки : Прогрессивная
Бит/(Пиксели*Кадры) : 0.222
Размер потока : 2,77 Гбайт (83%)
Библиотека кодирования : x264 core 148 r2638kMod 7599210
Настройки программы : cabac=1 / ref=12 / deblock=1:-3:-3 / analyse=0x3:0x133 / me=umh / subme=10 / psy=1 / fade_compensate=0.00 / psy_rd=1.08:0.00 / mixed_ref=1 / me_range=24 / chroma_me=1 / trellis=2 / 8x8dct=1 / cqm=0 / deadzone=21,11 / fast_pskip=1 / chroma_qp_offset=-2 / threads=6 / lookahead_threads=1 / sliced_threads=0 / nr=0 / decimate=1 / interlaced=0 / bluray_compat=0 / constrained_intra=0 / fgo=0 / bframes=9 / b_pyramid=2 / b_adapt=2 / b_bias=0 / direct=3 / weightb=1 / open_gop=0 / weightp=2 / keyint=250 / keyint_min=23 / scenecut=40 / intra_refresh=0 / rc=crf / mbtree=0 / crf=16.3000 / qcomp=0.65 / qpmin=0 / qpmax=69 / qpstep=4 / ip_ratio=1.30 / pb_ratio=1.20 / aq=3:0.68
Язык : English
Default : Да
Forced : Нет
Цветовой диапазон : Limited
Коэффициенты матрицы : BT.709
Аудио
Идентификатор : 2
Формат : AC-3
Формат/Информация : Audio Coding 3
Расширение режима : CM (complete main)
Параметр Endianness формата : Big
Идентификатор кодека : A_AC3
Продолжительность : 1 ч. 48 м.
Вид битрейта : Постоянный
Битрейт : 640 Кбит/сек
Каналы : 6 каналов
Расположение каналов : Front: L C R, Side: L R, LFE
Частота : 48,0 КГц
Частота кадров : 31,250 кадров/сек (1536 spf)
Метод сжатия : С потерями
Размер потока : 498 Мбайт (15%)
Заголовок : Дубляж - Лицензия
Язык : Russian
Default : Да
Forced : Нет
Меню
00:00:00.000 : en:00:00:00.000
00:00:59.559 : en:00:00:59.559
00:05:50.100 : en:00:05:50.100
00:10:05.563 : en:00:10:05.563
00:14:31.537 : en:00:14:31.537
00:18:24.019 : en:00:18:24.019
00:26:03.353 : en:00:26:03.353
00:30:57.439 : en:00:30:57.439
00:37:07.100 : en:00:37:07.100
00:40:43.441 : en:00:40:43.441
00:44:31.752 : en:00:44:31.752
00:51:40.430 : en:00:51:40.430
00:55:40.378 : en:00:55:40.378
01:00:48.269 : en:01:00:48.269
01:03:37.855 : en:01:03:37.855
01:09:19.822 : en:01:09:19.822
01:13:39.165 : en:01:13:39.165
01:17:07.372 : en:01:17:07.372
01:21:52.366 : en:01:21:52.366
01:28:19.169 : en:01:28:19.169
01:32:43.433 : en:01:32:43.433
01:36:12.141 : en:01:36:12.141




реклама партнёра


Вернуться к началу
 Профиль Отправить личное сообщение  
 
   Похожие торренты   Автор   Торрент   Размер 
В этой теме нет новых непрочитанных сообщений. Зверополис / Zootopia (Байрон Ховард, Рич Мур, Джаред Буш) [2016, мультфильм, боевик, комедия, криминал, приключения, семейный, HDRip | Лицензия] Dub

marya111

2178 | 80

1.45 ГБ

В этой теме нет новых непрочитанных сообщений. Зверополис / Zootopia [2D/3D] [USA Transfer] (Байрон Ховард, Рич Мур, Джаред Буш) [2016, мультфильм, боевик, комедия, криминал, приключения, семейный, BD Remux 2D/3D 1080p] DUB [iTunes]

marya111

17 | 6

32.5 ГБ

В этой теме нет новых непрочитанных сообщений. Зверополис / Zootopia (мультфильм, боевик, комедия, криминал, приключения, семейный, 2016) BDRip 1080p от New-Team & qqss44 | Локализованная версия | Лицензия

marya111

310 | 87

7.75 ГБ

В этой теме нет новых непрочитанных сообщений. Зверополис / Zootopia [приключения, комедия, семейный, 2016] BDRip, Dub [Лицензия]

salma3

170 | 5

1.46 ГБ

В этой теме нет новых непрочитанных сообщений. Зверополис / Zootopia (Мультфильм, полнометражный, детский, семейный, комедия, приключения, 2016) BDRip-AVC от MediaClub | D, P, А

marya111

114 | 11

3.11 ГБ

В этой теме нет новых непрочитанных сообщений. Зверополис 3Д / Zootopia 3D [мультфильм, боевик, комедия, криминал, 2016] Blu-Ray CEE 1080p, Dub [3D-Video] [Лицензия]

salma3

20 | 15

45.8 ГБ

В этой теме нет новых непрочитанных сообщений. Зверополис / Zootopia [мультфильм, боевик, комедия, 2016] BDRip 1080p, Dub

salma3

479 | 28

5.75 ГБ


Начать новую тему Ответить на тему  [ 1 сообщение ] 




Для Мосгорсуда, Роскомнадзора и рекламодателей:: mosgorsud-torrent[собачка]yandex.ru