Торрент файл
скачать торрент магнет ссылка Добавлен: 30 сен 2016, 00:59
Размер: 7.2 ГБ
Сидеров: 0
Личеров: 0
Автор

СообщениеДобавлено: 30 сен 2016, 00:59 

Не в сети
Дата регистрации:
28 сен 2016, 18:10
Спасибо: 62 / 0
Сообщения: 1040
Информация о фильме:
Название: Кунг-фу Панда 3
Оригинальное название: Kung Fu Panda 3
Год выхода: 2016
Жанр: мультфильм, боевик, комедия, приключения, семейный
Режиссер: Алессандро Карлони, Дженнифер Ю / Alessandro Carloni, Jennifer Yuh
Роли озвучивали: Джек Блэк, Брайан Крэнстон, Дастин Хоффман, Анджелина Джоли, Дж.К. Симмонс, Джеки Чан, Сет Роген, Люси Лью, Дэвид Кросс, Кейт Хадсон, Джеймс Хонг, Рэндолл Дак Ким, Стил Гэнон...
О мультфильме: Воссоединившись со своим давно потерянным отцом, По отправляется в тайный рай для панд, где его ожидает встреча с множеством веселых сородичей. Однако вскоре злодей Кай начинает зачистку - он уничтожает кунг-фу мастеров по всему Китаю.
По предстоит сделать невозможное - обучить боевому искусству деревню, полную его веселых, неуклюжих собратьев, и тем самым превратить их в отряд кунг-фу панд.
«Притяженья больше нет»



Выпущено: США, Китай ‖ China Film Co., DreamWorks Animation, Oriental DreamWorks
Продолжительность: 01:34:54
Перевод: Профессиональный (полное дублирование) BD EUR
Оригинальная аудиодорожка: английская
Субтитры: русские (полные: BD, iTunes, форсированные), украинские (полные: BD, iTunes, форсированные), английские (полные х2, SDH, SDH цветные)
Главы: присутствуют, сохранены оригинальные
Файл:
Формат: MKV
Качество: BDRip 1080p (источник:
Видео: 1920x816 (2.35:1), 23.976 fps, MPEG-4 AVC, ~7916 kbps avg, 0.211 bit/pixel
Аудио #1: 48 kHz, DTS, 3/2 (L,C,R,l,r) + LFE ch, ~768 kbps avg (DUB)
Аудио #2: 48 kHz, AC3 Dolby Digital, 3/2 (L,C,R,l,r) + LFE ch, ~448 kbps avg (UKR)
Аудио #3: 48 kHz, DTS, 3/2 (L,C,R,l,r) + LFE ch, ~1509 kbps avg (ENG)
Сэмпл: скачать
Размер: 7.20 GB
Уникальный идентификатор : 205855000239374797891083778397962453577 (0x9ADE3B1D5465B436B844128BD1934249)
Полное имя : Kung.Fu.Panda.3.2016.1080p.BluRay.Rus.Ukr.Eng.-HQCLUB.mkv
Формат : Matroska
Версия формата : Version 2
Размер файла : 7,20 Гбайт
Продолжительность : 1 ч. 34 м.
Общий поток : 10,9 Мбит/сек
Название фильма : Кунг-фу Панда 3 / Kung Fu Panda 3 (2016) BDRip 1080p by Elheym [HQCLUB]
Дата кодирования : UTC 2016-07-08 10:50:23
Программа кодирования : mkvmerge v5.2.0 ('I can't explain') built on Dec 18 2011 18:12:03
Библиотека кодирования : libebml v1.2.3 + libmatroska v1.3.0
Обложка : Yes
Attachments : cover.jpg
Видео
Идентификатор : 1
Формат : AVC
Формат/Информация : Advanced Video Codec
Профиль формата : High@L4.1
Параметр CABAC формата : Да
Параметр ReFrames формата : 4 кадра
Идентификатор кодека : V_MPEG4/ISO/AVC
Продолжительность : 1 ч. 34 м.
Битрейт : 7916 Кбит/сек
Ширина : 1920 пикселей
Высота : 816 пикселей
Соотношение сторон : 2,35:1
Режим частоты кадров : Постоянный
Частота кадров : 23,976 (24000/1001) кадра/сек
Цветовое пространство : YUV
Субдискретизация насыщенности : 4:2:0
Битовая глубина : 8 бит
Тип развёртки : Прогрессивная
Бит/(Пиксели*Кадры) : 0.211
Размер потока : 5,25 Гбайт (73%)
Заголовок : Кунг-фу Панда 3 / Kung Fu Panda 3 (2016) BDRip 1080p by Elheym
Библиотека кодирования : x264 core 148 r2692+54 69a6f49 t_mod_Custom [8-bit@all X86_64]
Настройки программы : cabac=1 / ref=4 / deblock=1:-3:-2 / analyse=0x3:0x113 / me=umh / subme=10 / psy=1 / fade_compensate=0.00 / psy_rd=0.75:0.00 / mixed_ref=1 / me_range=32 / chroma_me=1 / trellis=2 / 8x8dct=1 / cqm=0 / deadzone=21,11 / fast_pskip=0 / chroma_qp_offset=-2 / threads=6 / lookahead_threads=2 / sliced_threads=0 / nr=0 / decimate=1 / interlaced=0 / bluray_compat=0 / constrained_intra=0 / fgo=0 / bframes=8 / b_pyramid=2 / b_adapt=2 / b_bias=0 / direct=3 / weightb=1 / open_gop=0 / weightp=2 / keyint=230 / keyint_min=23 / scenecut=40 / intra_refresh=0 / rc_lookahead=80 / rc=crf / mbtree=0 / crf=17.6000 / qcomp=0.70 / qpmin=0:0:0 / qpmax=69:69:69 / qpstep=4 / vbv_maxrate=50000 / vbv_bufsize=62500 / crf_max=0.0 / nal_hrd=none / filler=0 / ip_ratio=1.40 / pb_ratio=1.30 / aq=3:0.70 / aq-sensitivity=10.00 / aq-factor=1.00:1.00:1.00 / aq2=0 / aq3=0
Язык : English
Default : Да
Forced : Нет
Аудио #1
Идентификатор : 2
Формат : DTS
Формат/Информация : Digital Theater Systems
Режим : 16
Параметр Endianness формата : Big
Идентификатор кодека : A_DTS
Продолжительность : 1 ч. 34 м.
Вид битрейта : Постоянный
Битрейт : 768 Кбит/сек
Каналы : 6 каналов
Расположение каналов : Front: L C R, Side: L R, LFE
Частота : 48,0 КГц
Частота кадров : 93,750 кадра/сек (512 spf)
Битовая глубина : 24 бит
Метод сжатия : С потерями
Размер потока : 521 Мбайт (7%)
Заголовок : DTS 5.1 @ 768 kbps - Dub, BD EUR
Язык : Russian
Default : Нет
Forced : Нет
Аудио #2
Идентификатор : 3
Формат : AC-3
Формат/Информация : Audio Coding 3
Расширение режима : CM (complete main)
Параметр Endianness формата : Big
Идентификатор кодека : A_AC3
Продолжительность : 1 ч. 34 м.
Вид битрейта : Постоянный
Битрейт : 448 Кбит/сек
Каналы : 6 каналов
Расположение каналов : Front: L C R, Side: L R, LFE
Частота : 48,0 КГц
Частота кадров : 31,250 кадров/сек (1536 spf)
Метод сжатия : С потерями
Размер потока : 304 Мбайт (4%)
Заголовок : АС3 5.1 @ 448 kbps - Dub, BD EUR
Язык : Ukrainian
Default : Нет
Forced : Нет
Аудио #3
Идентификатор : 4
Формат : DTS
Формат/Информация : Digital Theater Systems
Профиль формата : ES Matrix / Core
Режим : 16
Параметр Endianness формата : Big
Идентификатор кодека : A_DTS
Продолжительность : 1 ч. 34 м.
Вид битрейта : Постоянный
Битрейт : 1509 Кбит/сек
Каналы : 7 каналов / 6 каналов
Расположение каналов : Front: L C R, Side: L R, Back: C, LFE / Front: L C R, Side: L R, LFE
Частота : 48,0 КГц
Частота кадров : 93,750 кадра/сек (512 spf)
Битовая глубина : 24 бит
Метод сжатия : С потерями
Размер потока : 1,00 Гбайт (14%)
Заголовок : DTS 5.1 @ 1509 kbps - Original
Язык : English
Default : Нет
Forced : Нет
Текст #1
Идентификатор : 5
Формат : UTF-8
Идентификатор кодека : S_TEXT/UTF8
Идентификатор кодека/Информация : UTF-8 Plain Text
Заголовок : Full, BD
Язык : Russian
Default : Нет
Forced : Нет
Текст #2
Идентификатор : 6
Формат : UTF-8
Идентификатор кодека : S_TEXT/UTF8
Идентификатор кодека/Информация : UTF-8 Plain Text
Заголовок : Full, iTunes
Язык : Russian
Default : Нет
Forced : Нет
Текст #3
Идентификатор : 7
Формат : UTF-8
Идентификатор кодека : S_TEXT/UTF8
Идентификатор кодека/Информация : UTF-8 Plain Text
Заголовок : Forced
Язык : Russian
Default : Да
Forced : Нет
Текст #4
Идентификатор : 8
Формат : UTF-8
Идентификатор кодека : S_TEXT/UTF8
Идентификатор кодека/Информация : UTF-8 Plain Text
Заголовок : Full, BD
Язык : Ukrainian
Default : Нет
Forced : Нет
Текст #5
Идентификатор : 9
Формат : UTF-8
Идентификатор кодека : S_TEXT/UTF8
Идентификатор кодека/Информация : UTF-8 Plain Text
Заголовок : Full, iTunes
Язык : Ukrainian
Default : Нет
Forced : Нет
Текст #6
Идентификатор : 10
Формат : UTF-8
Идентификатор кодека : S_TEXT/UTF8
Идентификатор кодека/Информация : UTF-8 Plain Text
Заголовок : Forced
Язык : Ukrainian
Default : Нет
Forced : Нет
Текст #7
Идентификатор : 11
Формат : UTF-8
Идентификатор кодека : S_TEXT/UTF8
Идентификатор кодека/Информация : UTF-8 Plain Text
Заголовок : Full, V1
Язык : English
Default : Нет
Forced : Нет
Текст #8
Идентификатор : 12
Формат : UTF-8
Идентификатор кодека : S_TEXT/UTF8
Идентификатор кодека/Информация : UTF-8 Plain Text
Заголовок : Full, V2
Язык : English
Default : Нет
Forced : Нет
Текст #9
Идентификатор : 13
Формат : UTF-8
Идентификатор кодека : S_TEXT/UTF8
Идентификатор кодека/Информация : UTF-8 Plain Text
Заголовок : SDH
Язык : English
Default : Нет
Forced : Нет
Текст #10
Идентификатор : 14
Формат : UTF-8
Идентификатор кодека : S_TEXT/UTF8
Идентификатор кодека/Информация : UTF-8 Plain Text
Заголовок : SDH Colored
Язык : English
Default : Нет
Forced : Нет
Меню
00:00:00.000 : :Chapter 01
00:05:21.779 : :Chapter 03
00:08:10.239 : :Chapter 05
00:10:00.016 : :Chapter 07
00:12:26.036 : :Chapter 09
00:15:24.214 : :Chapter 11
00:19:08.230 : :Chapter 13
00:24:39.394 : :Chapter 15
00:30:17.607 : :Chapter 17
00:33:53.990 : :Chapter 19
00:36:18.259 : :Chapter 21
00:39:55.643 : :Chapter 23
00:43:32.651 : :Chapter 25
00:46:45.844 : :Chapter 27
00:51:41.181 : :Chapter 29
00:56:04.611 : :Chapter 31
00:59:48.167 : :Chapter 33
01:02:11.310 : :Chapter 35
01:05:26.964 : :Chapter 37
01:10:16.837 : :Chapter 39
01:14:06.900 : :Chapter 41
01:17:06.580 : :Chapter 43
01:20:34.788 : :Chapter 45
01:24:21.181 : :Chapter 47
01:34:54.438 : :Chapter 49
x264 [info]: frame I:1339 Avg QP:15.33 size:231510
x264 [info]: frame P:40091 Avg QP:16.70 size: 75775
x264 [info]: frame B:95106 Avg QP:19.99 size: 25628
x264 [info]: consecutive B-frames: 5.1% 5.9% 22.9% 37.7% 16.3% 9.8% 1.1% 0.7% 0.4%
x264 [info]: ref P L0: 65.0% 11.9% 15.8% 6.8% 0.5% 0.0%
x264 [info]: ref B L0: 89.3% 8.8% 2.0%
x264 [info]: ref B L1: 96.6% 3.4%




реклама партнёра


Вернуться к началу
 Профиль Отправить личное сообщение  
 
   Похожие торренты   Автор   Торрент   Размер 
В этой теме нет новых непрочитанных сообщений. Кунг-фу Панда 3 / Kung Fu Panda 3 (Алессандро Карлони, Дженнифер Ю) [2016, Мультфильм, боевик, комедия, приключения, семейный, BDRip-AVC | Лицензия] Dub

marya111

51 | 1

2.45 ГБ

В этой теме нет новых непрочитанных сообщений. Кунг-фу Панда 3 / Kung Fu Panda 3 (Алессандро Карлони, Дженнифер Ю) [2016, мультфильм, боевик, комедия, приключения, семейный, BDRip | Лицензия] Dub

marya111

0 | 0

1.45 ГБ

В этой теме нет новых непрочитанных сообщений. Кунг-фу Панда 3 / Kung Fu Panda 3 (Алессандро Карлони, Дженнифер Ю) [2016, мультфильм, боевик, комедия, приключения, семейный, BDRip 720p | Лицензия] Dub

marya111

0 | 0

4.05 ГБ

В этой теме нет новых непрочитанных сообщений. Кунг-фу Панда 3 / Kung Fu Panda 3 (Алессандро Карлони, Дженнифер Ю) [2016, Мультфильм, боевик, комедия, приключения, семейный, HDRip | Лицензия] Dub

marya111

22 | 2

744.91 МБ

В этой теме нет новых непрочитанных сообщений. Кунг-фу Панда:Трилогия / Kung Fu Panda:Trilogy (Марк Осборн, Джон Стивенсон,Алессандро Карлони, Дженнифер Ю) [2008-2016, Мультфильм, боевик, комедия, приключения, семейный , BDRip 1080p] [DD5.1] [Dub Rus , Ukr , Eng]+[Sub Rus , Ukr , Eng][

Враг Нароода

3 | 7

27.41 ГБ

В этой теме нет новых непрочитанных сообщений. Кунг-фу Панда 3 / Kung Fu Panda 3 (мультфильм, боевик, комедия, приключения, семейный, 2016) BDRip-AVC от ExKinoRay | Лицензия

marya111

107 | 19

1.37 ГБ

В этой теме нет новых непрочитанных сообщений. Кунг-фу Панда 3 / Kung Fu Panda 3 [мультфильм, боевик, комедия, приключения, семейный, 2016] Blu-Ray, Dub [Лицензия]

salma3

21 | 9

38.98 ГБ


Начать новую тему Ответить на тему  [ 1 сообщение ] 




Для Мосгорсуда, Роскомнадзора и рекламодателей:: mosgorsud-torrent[собачка]yandex.ru