Торрент файл
скачать торрент магнет ссылка Добавлен: 30 сен 2016, 00:59
Размер: 3.27 ГБ
Сидеров: 1
Личеров: 2
Автор

СообщениеДобавлено: 30 сен 2016, 00:59 

Не в сети
Дата регистрации:
28 сен 2016, 18:10
Спасибо: 62 / 0
Сообщения: 1040
Страна: Франция, Дания
Жанр: драма, приключения, семейный
Продолжительность: 01:21:20
Год выпуска: 2015
Перевод: Субтитры
Русские субтитры: есть

Режиссёр: Реми Шайе / Rémi Chayé
Роли озвучивали: Криста Тере; Федор Аткин; Энтони Хиклинг; Томас Саголс; Реми Кайебо; Лоик Удре; Audrey Sablé
Сценарий: Fabrice de Costil, Клер Паолетти, Patricia Valeix
Продюсер: Рон Диэн, Клаус Токсвиг Кьяэр, Анри Магалон
Композитор: Жонатан Морали
Художник: Han Jin Kuang Liane-Cho, Слейвен Риз

Описание: 1892 год, Санкт-Петербург. Девушка Саша из аристократической семьи мечтает о Великом Севере и очень переживает о судьбе дедушки Олукина, известного ученого и исследователя Арктики, который до сих пор не вернулся из последней экспедиции на Северный полюс. Было отправлено несколько экспедиций на поиски, но всё безрезультатно. Саше передалась любовь дедушки к исследованиям и открытиям, но родители совершенно не одобряют ее увлечение. Саша ссорится с родителями из-за того, что никто не хочет слушать её версию о пропавшем корабле дедушки, бежит из дома и решает повторить тот длинный путь на Север в поисках его знаменитого корабля.

Семпл: http://multi-up.com/1109118

Качество: BDRip
Формат: MKV
Видео: MPEG4, 1280 x 536(2.39:1), 23.976 (24000/1001) fps, 4 253 Kbps
Аудио: DTS, 48.0 KHz, 6 channels, 1 509 Kbps
Субтитры: русские и английские

http://multi-up.com/1109121
Переводил для себя, так что кому не нравится может поправить
[Информация о видео]
Видео-декодер: AVC1 - Встроенный декодер FFmpeg(h264, Thread Frame)
Формат на входе: AVC1(24 bits)
Размер на входе: 1280 x 536(2.39:1)
Формат на выходе: YV12(12 bits)
Размер на выходе: 1280 x 536(2.39:1)
Частота кадров:23.98
BitRate: Неизвестно

[Информация о звуке]
Аудио-декодер: DTS(0x2001) - FFmpegMininum64.dll(dca)
Частота дискретизации: 48000 -> 48000 выборок в секунду
Разрядность: 24 -> 16 бит на компонент
Количество каналов: 6 -> 2 каналов
Bitrate: 6912 kbps

General
Unique ID : 253127649942926253072305823499240571079 (0xBE6E9CB1208A1949B31B473A927380C7)
Complete name : D:ТорентыTrackerTout en haut du mondeTout.en.Haut.du.Monde.2015.FRENCH.720p.BluRay.x264-LOST.mkv
Format : Matroska
Format version : Version 4 / Version 2
File size : 3.27 GiB
Duration : 1h 21mn
Overall bit rate : 5 762 Kbps
Encoded date : UTC 2016-07-08 20:43:01
Writing application : mkvmerge v9.2.0 ('Photograph') 64bit
Writing library : libebml v1.3.3 + libmatroska v1.4.4

Video
ID : 1
Format : AVC
Format/Info : Advanced Video Codec
Format profile : High@L4.1
Format settings, CABAC : Yes
Format settings, ReFrames : 5 frames
Codec ID : V_MPEG4/ISO/AVC
Duration : 1h 21mn
Bit rate : 4 253 Kbps
Width : 1 280 pixels
Height : 536 pixels
Display aspect ratio : 2.40:1
Frame rate mode : Constant
Frame rate : 23.976 (24000/1001) fps
Color space : YUV
Chroma subsampling : 4:2:0
Bit depth : 8 bits
Scan type : Progressive
Bits/(Pixel*Frame) : 0.259
Stream size : 2.41 GiB (74%)
Writing library : x264 core 148 r2692 64f4e24
Encoding settings : cabac=1 / ref=5 / deblock=1:0:0 / analyse=0x3:0x113 / me=umh / subme=8 / psy=1 / psy_rd=1.00:0.00 / mixed_ref=1 / me_range=16 / chroma_me=1 / trellis=1 / 8x8dct=1 / cqm=0 / deadzone=21,11 / fast_pskip=1 / chroma_qp_offset=-2 / threads=17 / lookahead_threads=2 / sliced_threads=0 / nr=0 / decimate=1 / interlaced=0 / bluray_compat=0 / constrained_intra=0 / bframes=3 / b_pyramid=2 / b_adapt=2 / b_bias=0 / direct=3 / weightb=1 / open_gop=0 / weightp=2 / keyint=240 / keyint_min=24 / scenecut=40 / intra_refresh=0 / rc_lookahead=50 / rc=2pass / mbtree=1 / bitrate=4253 / ratetol=1.0 / qcomp=0.60 / qpmin=0 / qpmax=69 / qpstep=4 / cplxblur=20.0 / qblur=0.5 / ip_ratio=1.40 / aq=1:1.00
Language : English
Default : Yes
Forced : No

Audio
ID : 2
Format : DTS
Format/Info : Digital Theater Systems
Mode : 16
Format settings, Endianness : Big
Codec ID : A_DTS
Duration : 1h 21mn
Bit rate mode : Constant
Bit rate : 1 509 Kbps
Channel(s) : 6 channels
Channel positions : Front: L C R, Side: L R, LFE
Sampling rate : 48.0 KHz
Frame rate : 93.750 fps (512 spf)
Bit depth : 24 bits
Compression mode : Lossy
Stream size : 878 MiB (26%)
Title : French DTS 1509kbps
Language : French
Default : Yes
Forced : No

Text #1
ID : 3
Format : UTF-8
Codec ID : S_TEXT/UTF8
Codec ID/Info : UTF-8 Plain Text
Duration : 1h 15mn
Bit rate : 67 bps
Count of elements : 656
Stream size : 37.1 KiB (0%)
Language : Russian
Default : Yes
Forced : No

Text #2
ID : 4
Format : UTF-8
Codec ID : S_TEXT/UTF8
Codec ID/Info : UTF-8 Plain Text
Duration : 1h 15mn
Bit rate : 39 bps
Count of elements : 657
Stream size : 21.6 KiB (0%)
Language : English
Default : No
Forced : No

Menu
00:00:00.000 : en:00:00:00.000
00:07:00.337 : en:00:07:00.337
00:14:48.096 : en:00:14:48.096
00:20:06.330 : en:00:20:06.330
00:27:06.416 : en:00:27:06.416
00:31:18.376 : en:00:31:18.376
00:35:36.509 : en:00:35:36.509
00:45:54.794 : en:00:45:54.794
00:56:02.484 : en:00:56:02.484
01:02:00.675 : en:01:02:00.675
01:09:17.695 : en:01:09:17.695
01:16:59.073 : en:01:16:59.073






реклама партнёра


Вернуться к началу
 Профиль Отправить личное сообщение  
 
   Похожие торренты   Автор   Торрент   Размер 
В этой теме нет новых непрочитанных сообщений. И вдруг мне всех не хватает / Et soudain tout le monde me manque [драма, комедия, 2011] HDRip, Mvo [НТВ+]

salma3

30 | 4

1.37 ГБ

В этой теме нет новых непрочитанных сообщений. Долгий путь домой [01-09 из 16] (Ольга Доброва-Куликова) [2014, Драма, криминал, IPTVRip]

Nickolas3435

14 | 7

5.16 ГБ

В этой теме нет новых непрочитанных сообщений. Долгий путь домой [01-16 из 16] (Ольга Доброва-Куликова) [Драма, криминал, 2014] HDTVRip

Dracon

147 | 61

11.35 ГБ

В этой теме нет новых непрочитанных сообщений. Долгий путь домой [01-16 из 16] (Ольга Доброва-Куликова) [Драма, криминал, 2014] HDTV 1080i

Dracon

75 | 53

55.99 ГБ

В этой теме нет новых непрочитанных сообщений. Новейший завет / Le tout nouveau testament (Жако ван Дормель) [Комедия, 2015] WEB-DL 720p, Dub [iTunes]

Dracon

4873 | 119

3.5 ГБ

В этой теме нет новых непрочитанных сообщений. Север ада / Home Sweet Hell (Энтони Бёрнс) [Драма, Комедия, 2015] WEB-DL 720p, avo+sub

Dracon

7 | 2

3.22 ГБ

В этой теме нет новых непрочитанных сообщений. Париж любой ценой / Paris à tout prix [Комедия, 2013] BDRip 720p, Dub [Лицензия]

Dracon

75 | 3

4.61 ГБ


Начать новую тему Ответить на тему  [ 1 сообщение ] 




Для Мосгорсуда, Роскомнадзора и рекламодателей:: mosgorsud-torrent[собачка]yandex.ru