Торрент файл
скачать торрент магнет ссылка Добавлен: 30 сен 2016, 00:59
Размер: 1.36 ГБ
Сидеров: 187
Личеров: 5
Автор

СообщениеДобавлено: 30 сен 2016, 00:59 

Не в сети
Дата регистрации:
28 сен 2016, 18:10
Спасибо: 54 / 0
Сообщения: 942
Производство: США, Pixar Animation Studios, Walt Disney Pictures
Жанр: Мультфильм, комедия, приключения, семейный

Режиссер: Эндрю Стэнтон, Энгус МакЛэйн
Актеры: Эллен ДеДженерес, Альберт Брукс, Эд О’Нил, Кэйтлин Олсон, Хайден Роуленс, Тай Буррелл, Дайан Китон, Юджин Леви, Слоун Мюррэй, Идрис Эльба

Описание:
Дори — синяя доброжелательная рыбка-хирург, страдающая провалами в памяти. Она упорно стремится избавиться от своего недуга и найти свою семью.

Рейтинг MPAA: PG (рекомендуется присутствие родителей)
Дата мировой премьеры: 8 июня 2016
Дата премьеры в РФ: 16 июня 2016, «WDSSPR»
Дата выхода Blu-ray релиза: 6 сентября 2016, «Уолт Дисней Компани СНГ»
Дата выхода DVD: 6 сентября 2016, «Уолт Дисней Компани СНГ»

Продолжительность: 01:25:22
Качество видео: TS
Перевод: Дублированный
Субтитры: Отсутствуют
Реклама: Присутствуют вставки голосовой и текстовой рекламы.

Видео: MPEG4, XviD, 720x336 (2.2:1), 29.970 fps, 1 887 Kbps (0.260 bit/pixel)
Аудио: AC-3, 48.0 KHz, 2 ch, 384 Kbps, CBR

Код:

Формат : AVI
Формат/Информация : Audio Video Interleave
Размер файла : 1,36 Гбайт
Продолжительность : 1 ч. 25 м.
Общий поток : 2282 Кбит/сек
Программа кодирования : VirtualDubMod 1.5.10.2 (build 2542/release)
Библиотека кодирования : VirtualDubMod build 2542/release

Видео
Идентификатор : 0
Формат : MPEG-4 Visual
Профиль формата : Advanced Simple@L5
Параметр BVOP формата : 2
Параметр QPel формата : Нет
Параметр GMC формата : Без точки перехода
Параметр матрицы формата : Выборочная
Идентификатор кодека : XVID
Идентификатор кодека/Подсказка : XviD
Продолжительность : 1 ч. 25 м.
Битрейт : 1887 Кбит/сек
Ширина : 720 пикселей
Высота : 336 пикселей
Соотношение сторон : 2,143
Частота кадров : 29,970 кадров/сек
Цветовое пространство : YUV
Субдискретизация насыщенности : 4:2:0
Битовая глубина : 8 бит
Тип развёртки : Прогрессивная
Метод сжатия : С потерями
Бит/(Пиксели*Кадры) : 0.260
Размер потока : 1,13 Гбайт (83%)
Библиотека кодирования : XviD 1.2.1 (UTC 2008-12-04)

Аудио
Идентификатор : 1
Формат : AC-3
Формат/Информация : Audio Coding 3
Расширение режима : CM (complete main)
Параметр Endianness формата : Big
Идентификатор кодека : 2000
Продолжительность : 1 ч. 25 м.
Вид битрейта : Постоянный
Битрейт : 384 Кбит/сек
Каналы : 2 канала
Расположение каналов : Front: L R
Частота : 48,0 КГц
Битовая глубина : 16 бит
Метод сжатия : С потерями
Задержка видео : 27 мс.
Размер потока : 234 Мбайт (17%)
Выравнивание : Разделение по промежуткам
Продолжительность промежутка : 33 мс. (1,00 видеокадр)
Время предзагрузки промежутка : 500 мс.


Скриншоты:

Играю на аккордеоне за "Спасибо"






реклама партнёра


Вернуться к началу
 Профиль Отправить личное сообщение  
 
   Похожие торренты   Автор   Торрент   Размер 
В этой теме нет новых непрочитанных сообщений. В поисках Дори / Finding Dory (2016) WEB-DLRip-AVC от ExKinoRay | iTunes

marya111

0 | 0

1.95 ГБ

В этой теме нет новых непрочитанных сообщений. В поисках Дори / Finding Dory (Мультфильм, комедия, приключения, семейный, 2016) WEB-DLRip | iTunes

marya111

0 | 0

745.54 МБ

В этой теме нет новых непрочитанных сообщений. В поисках Дори / Finding Dory (Мультфильм, комедия, приключения, семейный, 2016) DVD9 | Custom

marya111

29 | 18

6.39 ГБ

В этой теме нет новых непрочитанных сообщений. В поисках Дори / Finding Dory (мультфильм, комедия, приключения, семейный, 2016) WEB-DLRip от Scarabey | iTunes

marya111

223 | 14

745.52 МБ

В этой теме нет новых непрочитанных сообщений. В поисках Дори / Finding Dory (мультфильм, комедия, приключения, семейный, 2016) WEB-DLRip от Scarabey | iTunes

marya111

0 | 0

1.4 ГБ

В этой теме нет новых непрочитанных сообщений. В поисках Дори / Finding Dory ( мультфильм, комедия, приключения, семейный, 2016) BDRip-AVC от HELLYWOOD | iTunes

marya111

214 | 10

1.46 ГБ

В этой теме нет новых непрочитанных сообщений. В поисках Дори / Finding Dory [мультфильм, комедия, приключения, семейный, 2016] BDRip 720p, Dub [Лицензия]

salma3

92 | 11

6.55 ГБ


Начать новую тему Ответить на тему  [ 1 сообщение ] 




Для Мосгорсуда, Роскомнадзора и рекламодателей:: mosgorsud-torrent[собачка]yandex.ru