Торрент файл
скачать торрент магнет ссылка Добавлен: 30 сен 2016, 00:59
Размер: 2.19 ГБ
Сидеров: 48
Личеров: 5
Автор

СообщениеДобавлено: 30 сен 2016, 00:59 

Не в сети
Дата регистрации:
28 сен 2016, 18:10
Спасибо: 60 / 0
Сообщения: 1019
«Притяженья больше нет»


Производство: Китай, США | China Film Co., DreamWorks Animation, Oriental DreamWorks
Жанр: Боевик, Комедия, Приключения, Семейный

Режиссер: Алессандро Карлони, Дженнифер Ю
Продюсер: Мелисса Кобб, Джонатан Айбел, Гленн Бергер

Описание:
Воссоединившись со своим давно потерянным отцом, По отправляется в тайный рай для панд, где его ожидает встреча с множеством веселых сородичей. Однако вскоре злодей Кай начинает зачистку — он уничтожает кунг-фу мастеров по всему Китаю.
По предстоит сделать невозможное — обучить боевому искусству деревню, полную его веселых, неуклюжих собратьев, и тем самым превратить их в отряд кунг-фу панд.



Возраст: 6+ (зрителям, достигшим 6 лет)
Рейтинг MPAA: PG (рекомендуется присутствие родителей)
Дата мировой премьеры: 23 января 2016
Дата премьеры в России: 28 января 2016

Продолжительность: 01:34:56
Качество видео: BDRip 720p-LQ
Перевод: Дублированный (iTunes)
Субтитры: Отсутствуют

Видео: AVC/H.264, 1280x544 (2.35:1), 23.976 fps, 2480 Kbps (0.149 bit/pixel)
Аудио #1: AC-3, 48.0 KHz, 6 ch, 384 Kbps, CBR (Русский)
Аудио #2: AC-3, 48.0 KHz, 6 ch, 448 Kbps, CBR (Английский)

Код:

Complete name : DownloadsKung.Fu.Panda.3.2016.BDRip.720p-LQ.mkv
Format : Matroska
Format version : Version 2
File size : 2.19 GiB
Duration : 1h 34mn
Overall bit rate : 3 310 Kbps
Movie name : Kung Fu Panda 3
Encoded date : UTC 2016-06-09 18:47:55
Writing application : mkvmerge v5.8.0 ('No Sleep / Pillow') built on Sep 2 2012 15:37:04
Writing library : libebml v1.2.3 + libmatroska v1.3.0

Video
ID : 1
Format : AVC
Format/Info : Advanced Video Codec
Format profile : High@L4.1
Format settings, CABAC : Yes
Format settings, ReFrames : 5 frames
Codec ID : V_MPEG4/ISO/AVC
Duration : 1h 34mn
Bit rate : 2 480 Kbps
Width : 1 280 pixels
Height : 544 pixels
Display aspect ratio : 2.35:1
Frame rate mode : Constant
Frame rate : 23.976 fps
Color space : YUV
Chroma subsampling : 4:2:0
Bit depth : 8 bits
Scan type : Progressive
Bits/(Pixel*Frame) : 0.149
Stream size : 1.60 GiB (73%)
Writing library : x264 core 148 r2692 64f4e24
Encoding settings : cabac=1 / ref=5 / deblock=1:0:0 / analyse=0x3:0x133 / me=umh / subme=7 / psy=1 / psy_rd=1.00:0.00 / mixed_ref=1 / me_range=16 / chroma_me=1 / trellis=1 / 8x8dct=1 / cqm=0 / deadzone=21,11 / fast_pskip=0 / chroma_qp_offset=-2 / threads=17 / lookahead_threads=2 / sliced_threads=0 / nr=0 / decimate=1 / interlaced=0 / bluray_compat=0 / constrained_intra=0 / bframes=3 / b_pyramid=2 / b_adapt=1 / b_bias=0 / direct=1 / weightb=1 / open_gop=0 / weightp=2 / keyint=250 / keyint_min=23 / scenecut=40 / intra_refresh=0 / rc_lookahead=40 / rc=2pass / mbtree=1 / bitrate=2480 / ratetol=1.0 / qcomp=0.60 / qpmin=0 / qpmax=69 / qpstep=4 / cplxblur=20.0 / qblur=0.5 / ip_ratio=1.40 / aq=1:1.00
Language : English
Default : Yes
Forced : No

Audio #1
ID : 2
Format : AC-3
Format/Info : Audio Coding 3
Mode extension : CM (complete main)
Format settings, Endianness : Big
Codec ID : A_AC3
Duration : 1h 34mn
Bit rate mode : Constant
Bit rate : 384 Kbps
Channel(s) : 6 channels
Channel positions : Front: L C R, Side: L R, LFE
Sampling rate : 48.0 KHz
Bit depth : 16 bits
Compression mode : Lossy
Delay relative to video : 989ms
Stream size : 261 MiB (12%)
Language : Russian
Default : Yes
Forced : Yes

Audio #2
ID : 3
Format : AC-3
Format/Info : Audio Coding 3
Mode extension : CM (complete main)
Format settings, Endianness : Big
Codec ID : A_AC3
Duration : 1h 34mn
Bit rate mode : Constant
Bit rate : 448 Kbps
Channel(s) : 6 channels
Channel positions : Front: L C R, Side: L R, LFE
Sampling rate : 48.0 KHz
Bit depth : 16 bits
Compression mode : Lossy
Stream size : 304 MiB (14%)
Language : English
Default : No
Forced : No

Menu
00:00:00.000 : en:00:00:00.000
00:05:21.780 : en:00:05:21.780
00:08:10.240 : en:00:08:10.240
00:10:00.016 : en:00:10:00.016
00:12:26.037 : en:00:12:26.037
00:15:24.215 : en:00:15:24.215
00:19:08.230 : en:00:19:08.230
00:24:39.395 : en:00:24:39.395
00:30:17.607 : en:00:30:17.607
00:33:53.990 : en:00:33:53.990
00:36:18.259 : en:00:36:18.259
00:39:55.643 : en:00:39:55.643
00:43:32.652 : en:00:43:32.652
00:46:45.845 : en:00:46:45.845
00:51:41.181 : en:00:51:41.181
00:56:04.611 : en:00:56:04.611
00:59:48.168 : en:00:59:48.168
01:02:11.353 : en:01:02:11.353
01:05:26.965 : en:01:05:26.965
01:10:16.838 : en:01:10:16.838
01:14:06.901 : en:01:14:06.901
01:17:06.580 : en:01:17:06.580
01:20:34.788 : en:01:20:34.788
01:24:21.181 : en:01:24:21.181


Скриншоты:

Играю на аккордеоне за "Спасибо"






реклама партнёра


Вернуться к началу
 Профиль Отправить личное сообщение  
 
   Похожие торренты   Автор   Торрент   Размер 
В этой теме нет новых непрочитанных сообщений. Кунг-фу Панда 3 / Kung Fu Panda 3 (Алессандро Карлони, Дженнифер Ю) [2016, мультфильм, боевик, комедия, приключения, семейный, BDRip 720p | Лицензия] Dub

marya111

0 | 0

4.05 ГБ

В этой теме нет новых непрочитанных сообщений. Кунг-фу Панда 3 / Kung Fu Panda 3 (мультфильм, боевик, комедия, приключения, семейный, 2016) BDRip-AVC от ExKinoRay | Лицензия

marya111

107 | 19

1.37 ГБ

В этой теме нет новых непрочитанных сообщений. Кунг-фу Панда 3 / Kung Fu Panda 3 (2016) BDRemux [H.264/1080p]

marya111

26 | 5

21.72 ГБ

В этой теме нет новых непрочитанных сообщений. Кунг-фу Панда 3 / Kung Fu Panda 3 (Алессандро Карлони, Дженнифер Ю) [2016, Мультфильм, боевик, комедия, приключения, семейный, BDRip-AVC | Лицензия] Dub

marya111

51 | 1

2.45 ГБ

В этой теме нет новых непрочитанных сообщений. Кунг-фу Панда 3 / Kung Fu Panda 3 (Алессандро Карлони, Дженнифер Ю) [2016, мультфильм, боевик, комедия, приключения, семейный, BDRip | Лицензия] Dub

marya111

0 | 0

1.45 ГБ

В этой теме нет новых непрочитанных сообщений. Кунг-фу Панда 3 / Kung Fu Panda 3 (Алессандро Карлони, Дженнифер Ю) [2016, мультфильм, боевик, комедия, приключения, семейный, BDRip 1080p | Лицензия] Dub

marya111

0 | 0

7.2 ГБ

В этой теме нет новых непрочитанных сообщений. Кунг-фу Панда 3 / Kung Fu Panda 3 [Боевик, Комедия, Приключения, Семейный, 2016] WEBRip, Dub [Line]

salma3

19 | 0

1.31 ГБ


Начать новую тему Ответить на тему  [ 1 сообщение ] 




Для Мосгорсуда, Роскомнадзора и рекламодателей:: mosgorsud-torrent[собачка]yandex.ru