Торрент файл
скачать торрент магнет ссылка Добавлен: 30 сен 2016, 00:59
Размер: 1.46 ГБ
Сидеров: 238
Личеров: 0
Автор

СообщениеДобавлено: 30 сен 2016, 00:59 

Не в сети
Дата регистрации:
28 сен 2016, 18:10
Спасибо: 62 / 0
Сообщения: 1040
«Что такие сердитые?»



Страна: Финляндия США
Производство: Columbia Pictures, Village Roadshow Pictures, LStar Capital, Sony Pictures Animation
Год выпуска: 2016
Жанр: мультфильм, боевик, комедия, семейный
Продолжительность: 01:35:53

Режиссеры: Клэй Кэйтис, Фергал Рейли
Автор сценария: Джон Витти

В ролях: Питер Динклэйдж, Джейсон Судейкис, Кейт МакКиннон, Кигэн-Майкл Ки, Титус Берджесс, Шон Пенн, Билл Хейдер, Майя Рудольф

Описание: Фильм расскажет о том, как началось знаменитое противостояние птичек и свинок, персонажей популярной компьютерной игры, а также раскроет некоторые секреты любимых героев...



Перевод: Профессиональный (полное дублирование) | чистый звук
Субтитры: нет

Качество: Telecine
Формат: АVI
Видео кодек: XviD
Аудио кодек: АС3
Видео: 720x400 (16:9), 29.970 fps, XviD ~1 095 kbps avg
Аудио: 48.0 kHz, AC3 Dolby Digital, 2/0 (L,R) ch, ~384 kbps

Дата премьеры (мир):5 мая 2016
Дата премьеры (РФ):12 мая 2016, «WDSSPR»

ПРИМЕЧАНИЕ: около 7 минут вставка звука с CAMRip

ПРИМЕЧАНИЕ: ПРИСУТСТВУЕТ РЕКЛАМА!

General
Format : AVI
Format/Info : Audio Video Interleave
Overall bit rate : 1 493 Kbps
Writing application : Lavf57.25.100

Video
ID : 0
Format : MPEG-4 Visual
Format profile : Advanced Simple@L5
Format settings, BVOP : 2
Format settings, QPel : No
Format settings, GMC : No warppoints
Format settings, Matrix : Custom
Codec ID : XVID
Codec ID/Hint : XviD
Bit rate : 1 095 Kbps
Width : 720 pixels
Height : 400 pixels
Display aspect ratio : 16:9
Frame rate : 29.970 fps
Color space : YUV
Chroma subsampling : 4:2:0
Bit depth : 8 bits
Scan type : Progressive
Compression mode : Lossy
Bits/(Pixel*Frame) : 0.127
Stream size : 4.13 MiB (73%)
Writing library : XviD 1.2.1 (UTC 2008-12-04)

Audio
ID : 1
Format : AC-3
Format/Info : Audio Coding 3
Mode extension : CM (complete main)
Format settings, Endianness : Big
Codec ID : 2000
Bit rate mode : Constant
Bit rate : 384 Kbps
Channel(s) : 2 channels
Channel positions : Front: L R
Sampling rate : 48.0 KHz
Bit depth : 16 bits
Compression mode : Lossy
Stream size : 1.44 MiB (26%)
Alignment : Split accross interleaves
Interleave, duration : 32 ms (0.96 video frame)
Interleave, preload duration : 30 ms


Скриншоты:

Играю на аккордеоне за "Спасибо"






реклама партнёра


Вернуться к началу
 Профиль Отправить личное сообщение  
 
   Похожие торренты   Автор   Торрент   Размер 
В этой теме нет новых непрочитанных сообщений. Angry Birds в кино / The Angry Birds Movie [Мультфильм, боевик, комедия, семейный, 2016] BDRip 720p, Dub+Sub [iTunes]

salma3

12 | 1

4.76 ГБ

В этой теме нет новых непрочитанных сообщений. Angry Birds в кино / Angry Birds (2016) WEBRip [H.264/720p-LQ]

marya111

82 | 5

2.33 ГБ

В этой теме нет новых непрочитанных сообщений. Angry Birds - Plants II [Arcade, 2014] [Лицензия]

DBCooper

92 | 6

8.85 МБ

В этой теме нет новых непрочитанных сообщений. Angry Birds - New Plants [Arcade, 2014] [Лицензия]

DBCooper

101 | 4

8.89 МБ

В этой теме нет новых непрочитанных сообщений. Злые птички / Angry Birds Toons [01-52 из 52] [Мультсериал, 2013] WEB-DL 720p, Avo

Dracon

229 | 108

3.77 ГБ

В этой теме нет новых непрочитанных сообщений. Злостный видеоигровой задрот: Кино / Angry Video Game Nerd: The Movie [Фантастика, комедия, приключения, 2014] WEBRip, Avo

salma3

150 | 5

1.37 ГБ

В этой теме нет новых непрочитанных сообщений. The Last Of Birds [Arcade, 2014] [Лицензия]

Tobus

2 | 2

7.02 МБ


Начать новую тему Ответить на тему  [ 1 сообщение ] 




Для Мосгорсуда, Роскомнадзора и рекламодателей:: mosgorsud-torrent[собачка]yandex.ru