Торрент файл
скачать торрент магнет ссылка Добавлен: 30 сен 2016, 00:59
Размер: 1.43 ГБ
Сидеров: 10
Личеров: 2
Автор

СообщениеДобавлено: 30 сен 2016, 00:59 

Не в сети
Дата регистрации:
28 сен 2016, 18:10
Спасибо: 211 / 0
Сообщения: 1999
Производство: Швеция
Жанр: Детский, Комедия, Приключения, Музыкальный

Режиссер: Пер Олин
Персонажи: Халвар Бъйорк, Беппе Волгерс, Йенс Волгерс, Хакан Сернер, Тутс Тильманс, Сиф Рууд, Госта Икман...

Описание:
Камилла и Йенс - маленькие брат и сестра, которые живут на окраине сказочного леса. Однажды вечером к ним в дом проникло странное существо по имени Проказник-безобразник. Он заскучал в своём лесу и отправился на поиски друзей где нашел их среди детских игрушек. Ничуть не смущаясь, Проказник-безобразник крадет игрушки, Камиллы и Йенса, предварительно их оживив. Обнаружив пропажу, Йенс отправляется следом за Проказником-безобразником, чтобы вернуть свое имущество. Отец Йенса, Беппе спешит к нему на выручку вмести со своим другом шмелём. Героев этого веселого, полного песен и музыки фильма, ждут весьма забавные и порой опасные приключения, но верная дружба и вера в людей помогут им преодолеть любые невзгоды.

Релиз от: Max Nabokov

Продолжительность: 1:33:16
Качество видео: DVDRip
Перевод: Одноголосый закадровый, любительский
Озвучка / Автор перевода: Max Nabokov

Видео: Xvid, 720x544, ~1996
Аудио: AC3, 2 ch, 192, CBR
Код:

General
Complete name : D:MOVIEDunderklumpen!Per Åhlin.1974.DVDRip.(Max Nabokov)Dunderklumpen!Per Åhlin.1974.DVDRip.(Max Nabokov).avi
Format : AVI
Format/Info : Audio Video Interleave
File size : 1.43 GiB
Duration : 1h 33mn
Overall bit rate : 2 199 Kbps
Writing application : VirtualDubMod 1.5.10.2 (build 2540/release)
Writing library : VirtualDubMod build 2540/release
Video
ID : 0
Format : MPEG-4 Visual
Format profile : Advanced Simple@L5
Format settings, BVOP : 1
Format settings, QPel : No
Format settings, GMC : No warppoints
Format settings, Matrix : Default (H.263)
Codec ID : XVID
Codec ID/Hint : XviD
Duration : 1h 33mn
Bit rate : 1 997 Kbps
Width : 720 pixels
Height : 544 pixels
Display aspect ratio : 4:3
Frame rate : 25.000 fps
Color space : YUV
Chroma subsampling : 4:2:0
Bit depth : 8 bits
Scan type : Progressive
Compression mode : Lossy
Bits/(Pixel*Frame) : 0.204
Stream size : 1.30 GiB (91%)
Writing library : XviD 1.2.1 (UTC 2008-12-04)
Audio
ID : 1
Format : AC-3
Format/Info : Audio Coding 3
Mode extension : CM (complete main)
Format settings, Endianness : Big
Codec ID : 2000
Duration : 1h 33mn
Bit rate mode : Constant
Bit rate : 192 Kbps
Channel(s) : 2 channels
Channel positions : Front: L R
Sampling rate : 48.0 KHz
Frame rate : 31.250 fps (1536 spf)
Compression mode : Lossy
Stream size : 128 MiB (9%)
Alignment : Split accross interleaves
Interleave, duration : 40 ms (1.00 video frame)
Interleave, preload duration : 500 ms

Шведский полнометражный анимационный фильм " Dunderklumpen!" на самом деле не только анимационный, но и игровой. Детей и их отца сыграли живые люди, которым пришлось взаимодействовать с вымышленными - рисованными - персонажами. В качестве фона в подавляющем большинстве сцен тоже выступает настоящая природа. Подобная стилистика сейчас, с широким применением компьютеров в кино, не редкость, но в 20-м веке она встречалась не часто. Осуществить совмещение рисованного и реального мира было связано с рядом технических трудностей, поэтому такие фильмы по пальцам можно было перечесть (вспоминаются разве что "Мария, Мирабелла" Йона Попеску-Гопо и несколько опытов студии Уолта Диснея).



Играю на аккордеоне за "Спасибо"






реклама партнёра


Вернуться к началу
 Профиль Отправить личное сообщение  
 
   Похожие торренты   Автор   Торрент   Размер 
В этой теме нет новых непрочитанных сообщений. Проказник из психушки / The Couch Trip [Комедия, 1987] BDRip 1080p, Dub

salma3

12 | 3

13.99 ГБ

В этой теме нет новых непрочитанных сообщений. Красный райдинг 1974 / Red Riding 1974 [детектив, 2009] BDRip 720p, Dvo+Sub

salma3

83 | 9

4.04 ГБ

В этой теме нет новых непрочитанных сообщений. Создатель уродов / The Mutations [ужасы, фантастика, 1974] DVDRip, Avo

salma3

20 | 3

1.46 ГБ

В этой теме нет новых непрочитанных сообщений. Счастливая годовщина и разлука / Happy Anniversary and Goodbye [Комедия, 1974] DVDRip-AVC, Avo

salma3

16 | 8

746.94 МБ

В этой теме нет новых непрочитанных сообщений. Женщина в красных сапогах / La femme aux bottes rouges [Фэнтези, драма, комедия, 1974] DVDRip-AVC, Dvo

salma3

43 | 6

2 ГБ

В этой теме нет новых непрочитанных сообщений. Женщина в красных сапогах / La femme aux bottes rouges [драма, фэнтези, комедия, 1974] DVDRip, Dvo

salma3

130 | 3

1.46 ГБ

В этой теме нет новых непрочитанных сообщений. Red Heat / Красная Жара (Ray Dennis Steckler, Vinegar Syndrome) [1974 г.,Feature Classic, DVDRip]

max77777

22 | 8

1 ГБ


Начать новую тему Ответить на тему  [ 1 сообщение ] 




Для Мосгорсуда, Роскомнадзора и рекламодателей:: mosgorsud-torrent[собачка]yandex.ru