Торрент файл
скачать торрент магнет ссылка Добавлен: 30 сен 2016, 00:59
Размер: 3.21 ГБ
Сидеров: 18
Личеров: 3
Автор

СообщениеДобавлено: 30 сен 2016, 00:59 

Не в сети
Дата регистрации:
28 сен 2016, 18:10
Спасибо: 60 / 0
Сообщения: 1040
Производство: США / Columbia Pictures, LStar Capital, Sony Pictures Animation
Жанр: Комедия

Режиссер: Генндий Тартаковский
Персонажи: Адам Сэндлер, Энди Сэмберг, Селена Гомес, Кевин Джеймс, Стив Бушеми, Дэвид Спейд, Кигэн-Майкл Ки, Эшер Блинкофф, Фрэн Дрешер, Молли Шеннон

Описание:
Граф Дракула выдает свою очаровательную дочь замуж за парня из мира людей, и у молодой «смешанной» пары рождается сын. Станет ли этот ребенок человеком или вампиром?



Возраст: 6+ (зрителям, достигшим 6 лет)
Рейтинг MPAA: PG (рекомендуется присутствие родителей)
Дата мировой премьеры: 21.09.2015
Дата российской премьеры: 22.10.2015
Дата выхода DVD/Blu-ray релиза: 21.01.2016

Релиз от: makspayn94

Продолжительность: 01:29:18
Качество видео: BDRip 1080p
Перевод: Дублированный (лицензия)

Видео: HEVC/H.265, 1920x1036, ~4767 Kbps
Аудио: AAC, 6 ch, 384 Kbps, CBR

Код:

Общее
Уникальный идентификатор : 254260040228614174803795302001138941253 (0xBF48B3D7F0BE8829B559D9C8F8773D45)
Полное имя : D:Кино и мультики2015Монстры на каникулах 2.mkv
Формат : Matroska
Версия формата : Version 4 / Version 2
Размер файла : 3,21 Гбайт
Продолжительность : 1 ч. 29 м.
Общий поток : 5154 Кбит/сек
Дата кодирования : UTC 2016-06-01 05:08:30
Программа кодирования : mkvmerge v9.2.0 ('Photograph') 64bit
Библиотека кодирования : libebml v1.3.3 + libmatroska v1.4.4

Видео
Идентификатор : 1
Формат : HEVC
Формат/Информация : High Efficiency Video Coding
Профиль формата : Main@L4@Main
Идентификатор кодека : V_MPEGH/ISO/HEVC
Продолжительность : 1 ч. 29 м.
Битрейт : 4767 Кбит/сек
Ширина : 1920 пикселей
Высота : 1036 пикселей
Соотношение сторон : 1,85:1
Режим частоты кадров : Постоянный
Частота кадров : 23,976 (24000/1001) кадра/сек
Цветовое пространство : YUV
Субдискретизация насыщенности : 4:2:0
Битовая глубина : 8 бит
Бит/(Пиксели*Кадры) : 0.100
Размер потока : 2,97 Гбайт (93%)
Библиотека кодирования : x265 1.9+150-00ea3784bd36:[Windows][GCC 5.3.0][64 bit] 8bit
Настройки программы : wpp / ctu=64 / min-cu-size=8 / max-tu-size=32 / tu-intra-depth=1 / tu-inter-depth=1 / me=1 / subme=2 / merange=57 / no-rect / no-amp / max-merge=2 / temporal-mvp / no-early-skip / rdpenalty=0 / no-tskip / no-tskip-fast / strong-intra-smoothing / no-lossless / no-cu-lossless / no-constrained-intra / no-fast-intra / open-gop / no-temporal-layers / interlace=0 / keyint=230 / min-keyint=23 / scenecut=40 / rc-lookahead=20 / lookahead-slices=6 / bframes=4 / bframe-bias=0 / b-adapt=2 / ref=3 / limit-refs=3 / no-limit-modes / weightp / no-weightb / aq-mode=1 / qg-size=32 / aq-strength=1.00 / cbqpoffs=0 / crqpoffs=0 / rd=3 / psy-rd=2.00 / rdoq-level=0 / psy-rdoq=0.00 / no-rd-refine / signhide / deblock=-2:-2 / sao / no-sao-non-deblock / b-pyramid / cutree / no-intra-refresh / rc=2 / pass / bitrate=4769 / qcomp=0.60 / qpmin=0 / qpmax=51 / qpstep=4 / cplxblur=20.0 / qblur=0.5 / ipratio=1.40 / pbratio=1.30
Default : Да
Forced : Нет

Аудио
Идентификатор : 2
Формат : AAC
Формат/Информация : Advanced Audio Codec
Профиль формата : LC
Идентификатор кодека : A_AAC
Продолжительность : 1 ч. 29 м.
Битрейт : 384 Кбит/сек
Каналы : 6 каналов
Расположение каналов : Front: L C R, Side: L R, LFE
Частота : 48,0 КГц
Частота кадров : 46,875 кадров/сек (1024 spf)
Метод сжатия : С потерями
Размер потока : 245 Мбайт (7%)
Язык : Russian
Default : Да
Forced : Нет




Играю на аккордеоне за "Спасибо"






реклама партнёра


Вернуться к началу
 Профиль Отправить личное сообщение  
 
   Похожие торренты   Автор   Торрент   Размер 
В этой теме нет новых непрочитанных сообщений. Монстры на каникулах 2 / Hotel Transylvania 2 (Генндий Тартаковский) [мультфильм, фэнтези, комедия, семейный, 2015] BDRip 1080p, Dub+Sub [Лицензия]

Dracon

386 | 86

5.99 ГБ

В этой теме нет новых непрочитанных сообщений. Монстры на каникулах 2 / Hotel Transylvania 2 [мультфильм, фэнтези, комедия, семейный, 2015] BDRip-AVC, Dub+Sub [Лицензия]

Dracon

379 | 48

1.46 ГБ

В этой теме нет новых непрочитанных сообщений. Монстры на каникулах 2 / Hotel Transylvania 2 (Генндий Тартаковский) [мультфильм, фэнтези, комедия, семейный, 2015] WEB-DL 1080p, Dub [iTunes]

Dracon

2279 | 163

3.69 ГБ

В этой теме нет новых непрочитанных сообщений. Монстры на каникулах 2 / Hotel Transylvania 2 (Генндий Тартаковский) [мультфильм, фэнтези, комедия, семейный, 2015] BDRip, Dub [Лицензия]

Dracon

417 | 20

1.46 ГБ

В этой теме нет новых непрочитанных сообщений. Монстры на каникулах 2 / Hotel Transylvania 2 (Генндий Тартаковский) [мультфильм, фэнтези, комедия, семейный, 2015] BDRip 720p, Dub+Sub [Лицензия]

Dracon

322 | 55

3.57 ГБ

В этой теме нет новых непрочитанных сообщений. Монстры на каникулах 2 / Hotel Transylvania 2 (Генндий Тартаковский) [мультфильм, фэнтези, комедия, семейный, 2015] WEB-DL 720p, Dub [iTunes]

Dracon

1110 | 84

2.98 ГБ

В этой теме нет новых непрочитанных сообщений. Монстры на каникулах 2 / Hotel Transylvania 2 (Генндий Тартаковский) [мультфильм, фэнтези, комедия, семейный, 2015] WED-DLRip-AVC, Dub [Лицензия / iTunes]

Dracon

604 | 220

1.58 ГБ


Начать новую тему Ответить на тему  [ 1 сообщение ] 




Для Мосгорсуда, Роскомнадзора и рекламодателей:: mosgorsud-torrent[собачка]yandex.ru