Торрент файл
скачать торрент магнет ссылка Добавлен: 30 сен 2016, 00:59
Размер: 3.55 ГБ
Сидеров: 0
Личеров: 4
Автор

СообщениеДобавлено: 30 сен 2016, 00:59 

Не в сети
Дата регистрации:
28 сен 2016, 18:10
Спасибо: 54 / 0
Сообщения: 942
Смешарики. Начало

«Все по-взрослому!»


Год выпуска:
2011
Страна: Россия
Жанр: Мультфильм, комедия, приключения, семейный
Продолжительность:01:27:12
Режиссер: Денис Чернов
Сценарий: Алексей Лебедев
Продюсер: Илья Попов, Анатолий Прохоров, Тимур Бекмамбетов
Композитор: Марина Ланда, Сергей Васильев
В ролях: Вадим Бочанов, Сергей Мардарь, Антон Виноградов, Светлана Письмиченко, Владимир Постников, Михаил Черняк, Ксения Бржезовская, Михаил Хрусталев, Владимир Маслаков, Андрей Лёвин, Елена Шульман, Олег Куликович
Описание: Такую экстремальную историю про Смешариков вы не могли себе представить: покинув свою уютную страну, Смешарики оказываются в современном мегаполисе в роли супергероев! Зачем? Они приняли очень важное для себя решение — спасти мир от нависшей угрозы. Этот «ответственный» шаг приводит к самому захватывающему приключению в их жизни!
Релиз группы:
Раздача группы:

Качество: BDRip
Формат: MKV
Видео: 1280x720 at 23.976 fps, x264, ~4083 kb/s kbps avg
Аудио: DTS 48000Hz 6ch 1510kbps
Общее

Полное имя                       : Smeshariki.BDRip.720p.Uniongang.tv.mkv
Формат                           : Matroska
Версия формата                   : Version 2
Размер файла                     : 3,55 Гбайт
Продолжительность                : 1 ч. 30 м.
Общий поток                      : 5594 Кбит/сек
Название фильма                  : Smeshariki.BDRip.720p.Uniongang.tv
Дата кодирования                 : UTC 2012-02-16 14:33:41
Программа кодирования            : mkvmerge v5.2.1 ('A Far Off Place') built on Jan  2 2012 23:21:10
Библиотека кодирования           : libebml v1.2.3 + libmatroska v1.3.0

Видео
Идентификатор                    : 1
Формат                           : AVC
Формат/Информация                : Advanced Video Codec
Профиль формата                  : High@L4.1
Параметр CABAC формата           : Да
Параметр ReFrames формата        : 9 кадров
Идентификатор кодека             : V_MPEG4/ISO/AVC
Продолжительность                : 1 ч. 30 м.
Битрейт                          : 4083 Кбит/сек
Ширина                           : 1280 пикс.
Высота                           : 720 пикс.
Соотношение сторон               : 16:9
Частота кадров                   : 23,976 кадр/сек
Цветовое пространство            : YUV
Подвыборка цветности             : 4:2:0
Битовая глубина                  : 8 бит
Тип развёртки                    : Прогрессивная
Бит/(Пиксели*Кадры)              : 0.185
Размер потока                    : 2,52 Гбайт (71%)
Заголовок                        : Smeshariki.BDRip.720p.Uniongang.tv
Библиотека кодирования           : x264 core 119 r2106 07efeb4
Настройки программы              : cabac=1 / ref=9 / deblock=1:-1:-1 / analyse=0x3:0x113 / me=umh / subme=11 / psy=1 / psy_rd=0.60:0.00 / mixed_ref=1 / me_range=32 / chroma_me=1 / trellis=2 / 8x8dct=1 / cqm=0 / deadzone=21,11 / fast_pskip=0 / chroma_qp_offset=-2 / threads=6 / sliced_threads=0 / nr=0 / decimate=1 / interlaced=0 / bluray_compat=0 / constrained_intra=0 / bframes=6 / b_pyramid=2 / b_adapt=2 / b_bias=0 / direct=3 / weightb=1 / open_gop=0 / weightp=2 / keyint=250 / keyint_min=23 / scenecut=40 / intra_refresh=0 / rc_lookahead=40 / rc=2pass / mbtree=1 / bitrate=4083 / ratetol=1.0 / qcomp=0.60 / qpmin=0 / qpmax=69 / qpstep=4 / cplxblur=20.0 / qblur=0.5 / ip_ratio=1.40 / aq=1:0.80
Язык                             : Russian

Аудио
Идентификатор                    : 2
Формат                           : DTS
Формат/Информация                : Digital Theater Systems
Идентификатор кодека             : A_DTS
Продолжительность                : 1 ч. 30 м.
Вид битрейта                     : Постоянный
Битрейт                          : 1510 Кбит/сек
Каналы                           : 6 каналов
Расположение каналов             : Front: L C R, Side: L R, LFE
Частота                          : 48,0 КГц
Битовая глубина                  : 24 бит
Метод сжатия                     : С потерями
Размер потока                    : 982 Мбайт (27%)
Язык                             : Russian

Меню
00:00:00.000                     : ru:00:00:00.000
00:13:21.718                     : ru:00:13:21.718
00:34:07.003                     : ru:00:34:07.003
00:53:46.223                     : ru:00:53:46.223
01:12:34.392                     : ru:01:12:34.392













реклама партнёра


Вернуться к началу
 Профиль Отправить личное сообщение  
 
   Похожие торренты   Автор   Торрент   Размер 
В этой теме нет новых непрочитанных сообщений. Белка и Стрелка: Лунные приключения [мультфильм, комедия, приключения, семейный, 2013] BDRip 720p | [Лицензия]

Dracon

430 | 13

2.91 ГБ

В этой теме нет новых непрочитанных сообщений. Рио 2 / Rio 2 [Мультфильм, комедия, приключения, семейный, 2014] BDRip 720p, Dub [iTunes]

Dracon

340 | 14

4.64 ГБ

В этой теме нет новых непрочитанных сообщений. Приключения мистера Пибоди и Шермана / Mr. Peabody & Sherman [Мультфильм, Фантастика, Комедия, Приключения, Семейный, 2014] BDRip 720p, Dub+Sub [Blu-ray CEE]

Dracon

5 | 2

6.43 ГБ

В этой теме нет новых непрочитанных сообщений. Приключения мистера Пибоди и Шермана / Mr. Peabody & Sherman [Мультфильм, фантастика, комедия, приключения, семейный, 2014] BDRip 720p, Dub [iTunes]

Dracon

79 | 4

4.21 ГБ

В этой теме нет новых непрочитанных сообщений. Альфа и Омега: Приключения праздничного воя / Alpha and Omega 2: A Howl-iday Adventure [комедия, приключения, семейный, мультфильм, 2013] BDRip 720p, Mvo

Dracon

172 | 7

2.02 ГБ

В этой теме нет новых непрочитанных сообщений. Рио 2 / Rio 2 ( Карлос Салдана) [2014, мультфильм, комедия, приключения, семейный, BDRip 720p | Лицензия]

Nickolas3435

398 | 10

6.12 ГБ

В этой теме нет новых непрочитанных сообщений. Реальная белка / The Nut Job [мультфильм, комедия, приключения, семейный, 2014] BDRip 720p, Dub [Лицензия]

Dracon

530 | 16

2.91 ГБ


Начать новую тему Ответить на тему  [ 1 сообщение ] 




Для Мосгорсуда, Роскомнадзора и рекламодателей:: mosgorsud-torrent[собачка]yandex.ru