Торрент файл
скачать торрент магнет ссылка Добавлен: 31 авг 2016, 11:07
Размер: 3.72 ГБ
Сидеров: 0
Личеров: 0
Автор

СообщениеДобавлено: 31 авг 2016, 11:07 

В сети
Супермодератор
Аватара пользователя
Дата регистрации:
15 фев 2012, 16:44
Возраст: 27
Спасибо: 5148 / 2090
Сообщения: 17558
Год выхода: 2016
Жанр: Мультфильм, фантастика, фэнтези
Режиссер: Такэси Нодзуэ

В ролях: Аарон Пол, Лина Хиди, Шон Бин, Нейл Ньюбон, Аманда Пиери, Джон Кэмплинг, Адриан Буше, Андреа Тивадар, Грег Блэкфорд

О фильме:
Волшебное королевство Люцис является домом для священного Кристалла, но враждебная империя Нифльхейм не остановится ни перед чем, чтобы захватить реликвию. Король Люциса Регис возглавляет элитный отряд солдат, именуемых «Кингсглейв». Вооружившись магией короля, Никс Ульрик и его верные товарищи из Кингсглейв становятся на защиту столицы Инсомния, чтобы остановить неумолимое наступление имперской армии. Перед превосходящими силами Нифльхейма Королю Регису ничего не остаётся, как согласиться на ультиматум, уступив все свои земли за пределами столицы и женив своего сына Ноктиса на Леди Лунафрее, бывшей принцессе ныне захваченной земли Тенебра. В разбушевавшейся войне махинации Нифльхейма превращают Инсомнию в грандиозное поле битвы, затягивая Никса в борьбу за выживание всего королевства.



Страна: Китай
Студия: Beijing Going Zoom Media, Shanghai New Culture Media Group
Продолжительность: 01:55:32
Перевод: Профессиональный многоголосый (закадровый) | iTunes
Файл
Кодек: MPEG-4
Качество: WEB-DL 720p
Видео: 1280x530, 4035 Kbit/s, 23.976 fps
Звук:
Аудио #01: 48 kHz, AC3, 5.1, 384 Kbps | Профессиональный многоголосый (закадровый) | iTunes |
Аудио #02: 48 kHz, AC3, 2.0, 192 kbps | Оригинал |

General
Unique ID : 254315099058638625145930488130110544186 (0xBF534E7413889C18B75D1CA52138D93A)
Complete name : G:VideoKingsglaive.Final.Fantasy.XV.2016.WEB-DL.720p.ExKinoRay.mkv
Format : Matroska
Format version : Version 4 / Version 2
File size : 3.72 GiB
Duration : 1 h 55 min
Overall bit rate : 4 613 kb/s
Movie name : Kingsglaive.Final.Fantasy.XV.2016.WEB-DL.720p.ExKinoRay
Encoded date : UTC 2016-08-30 01:13:22
Writing application : mkvmerge v8.3.0 ('Over the Horizon') 64bit
Writing library : libebml v1.3.1 + libmatroska v1.4.2
Video
ID : 1
Format : AVC
Format/Info : Advanced Video Codec
Format profile : Main@L3.1
Format settings, CABAC : No
Format settings, ReFrames : 2 frames
Codec ID : V_MPEG4/ISO/AVC
Duration : 1 h 55 min
Bit rate : 4 035 kb/s
Width : 1 280 pixels
Height : 530 pixels
Display aspect ratio : 2.40:1
Frame rate mode : Constant
Frame rate : 23.976 (23976/1000) FPS
Color space : YUV
Chroma subsampling : 4:2:0
Bit depth : 8 bits
Scan type : Progressive
Bits/(Pixel*Frame) : 0.248
Stream size : 3.26 GiB (87%)
Language : English
Default : Yes
Forced : No
Color range : Limited
Color primaries : BT.709
Transfer characteristics : BT.709
Matrix coefficients : BT.709
Audio #1
ID : 2
Format : AC-3
Format/Info : Audio Coding 3
Mode extension : CM (complete main)
Format settings, Endianness : Big
Codec ID : A_AC3
Duration : 1 h 55 min
Bit rate mode : Constant
Bit rate : 384 kb/s
Channel(s) : 6 channels
Channel positions : Front: L C R, Side: L R, LFE
Sampling rate : 48.0 kHz
Frame rate : 31.250 FPS (1536 spf)
Compression mode : Lossy
Stream size : 317 MiB (8%)
Title : iTunes
Language : Russian
Default : Yes
Forced : No
Audio #2
ID : 3
Format : AC-3
Format/Info : Audio Coding 3
Mode extension : CM (complete main)
Format settings, Endianness : Big
Codec ID : A_AC3
Duration : 1 h 55 min
Bit rate mode : Constant
Bit rate : 192 kb/s
Channel(s) : 2 channels
Channel positions : Front: L R
Sampling rate : 48.0 kHz
Frame rate : 31.250 FPS (1536 spf)
Compression mode : Lossy
Stream size : 159 MiB (4%)
Language : English
Default : No
Forced : No
Menu
00:00:00.000 : en:1
00:12:05.975 : en:2
00:15:47.529 : en:3
00:20:22.845 : en:4
00:25:40.996 : en:5
00:32:13.722 : en:6
00:39:01.212 : en:7
00:43:43.786 : en:8
00:50:05.292 : en:9
00:54:58.418 : en:10
01:02:12.518 : en:11
01:12:54.284 : en:12
01:20:59.227 : en:13
01:26:23.759 : en:14
01:37:17.370 : en:15
01:41:56.148 : en:16

Релиз от: Автор релиза:


_________________



реклама партнёра


Вернуться к началу
 Профиль Отправить личное сообщение  
 
   Похожие торренты   Автор   Торрент   Размер 
В этой теме нет новых непрочитанных сообщений. Кингсглейв: Последняя фантазия XV / Kingsglaive: Final Fantasy XV [мультфильм, фантастика, фэнтези, 2016] WEB-DLRip, Mvo [iTunes]

salma3

1840 | 555

1.46 ГБ

В этой теме нет новых непрочитанных сообщений. Кингсглейв: Последняя фантазия XV / Kingsglaive: Final Fantasy XV [мультфильм, фантастика, фэнтези, драма, приключения, 2016] WEB-DL 1080p, Dub [iTunes]

marya111

730 | 8

3.96 ГБ

В этой теме нет новых непрочитанных сообщений. Кингсглейв: Последняя фантазия XV / Kingsglaive: Final Fantasy XV (Такэси Нодзуэ) [2016, мультфильм, фантастика, фэнтези, драма, приключения, HDRip | iTunes] mvo

marya111

2 | 2

2.05 ГБ

В этой теме нет новых непрочитанных сообщений. Кингсглейв: Последняя фантазия XV / Kingsglaive: Final Fantasy XV (мультфильм, фантастика, фэнтези, драма, приключения, 2016) BDRip от HQCLUB | P | Лицензия

marya111

1 | 0

2.18 ГБ

В этой теме нет новых непрочитанных сообщений. Кингсглейв: Последняя фантазия XV / Kingsglaive: Final Fantasy XV (мультфильм, фантастика, фэнтези, приключения, 2016) BDRip HEVC 720р от SuperMin | Лицензия

marya111

56 | 3

2.59 ГБ

В этой теме нет новых непрочитанных сообщений. Кингсглейв: Последняя фантазия XV / Kingsglaive: Final Fantasy XV (Такэси Нодзуэ) [2016, мультфильм, фантастика, фэнтези, драма, приключения, BDRip | Лицензия] mvo

marya111

0 | 0

1.46 ГБ

В этой теме нет новых непрочитанных сообщений. Кингсглейв: Последняя фантазия XV (мультфильм, фантастика, фэнтези, приключения, 2016) BDRip 720р от SuperMin | P | Лицензия

marya111

0 | 0

3.93 ГБ


Начать новую тему Ответить на тему  [ 1 сообщение ] 




Для Мосгорсуда, Роскомнадзора и рекламодателей:: mosgorsud-torrent[собачка]yandex.ru