Торрент файл
скачать торрент магнет ссылка Добавлен: 28 авг 2016, 11:52
Размер: 3.51 ГБ
Сидеров: 19
Личеров: 5
Автор

СообщениеДобавлено: 28 авг 2016, 11:52 

В сети
Супермодератор
Аватара пользователя
Дата регистрации:
15 фев 2012, 16:44
Возраст: 27
Спасибо: 5121 / 2089
Сообщения: 17304
Невероятный Блинки Билл / Blinky Bill the Movie
Страна: Австралия США
Производство: Assemblage Entertainment, Flying Bark Productions, Telegael
Год выпуска: 2015
Жанр: мультфильм, приключения, семейный
Продолжительность: 01:30:57
Режиссеры: Дин Тейлор, Ноэль Клири, Алекс Стадерманн
Автор сценария: Фин Эдквист

В ролях: Тони Коллетт, Руфус Сьюэлл, Робин МакЛиви, Дэвид Уэнэм, Райан Квантен, Ричард Роксбург, Бэрри Хамфриз

Роли дублировали: Ольга Голованова, Александр Груздев, Татьяна Лазарева, Иван Калинин, Александр Олешко

Описание: Блинки Билл — очаровательный и озорной медвежонок-коала, который никого не боится и никогда не сдаётся. Вместе с друзьями — весёлой ящерицей и добрыми страусами Эму — ему надо преодолеть миллион опасностей в диких джунглях, чтобы найти пропавшего отца. Новые герои, яркий красочный мир экзотического континента и настоящее большое приключение..!



Перевод: Профессиональный (полное дублирование) | iTunes
Субтитры: нет

Качество: BDRip 720p
Формат: МКV
Видео кодек: AVC
Аудио кодек: АС3 | DTS
Видео: 1280x688 (1.85:1), 24.000 fps, MPEG-4 AVC ~3 621 kbps avg
Аудио №1: 48.0 kHz, AC3 Dolby Digital, 3/2 (L,C,R,l,r) + LFE ch, ~384 kbps | RUS
Аудио №2: 48.0 kHz, Digital Theater Systems, 3/2 (L,C,R,l,r) + LFE ch, ~1509 kbps | ENG
Дата премьеры (мир): 21 августа 2015
Дата премьеры (РФ): 28 июля 2016, «Экспонента»

General
Уникальный идентификатор : 201006790742779414818221063156450078223 (0x97387FEE6A2A876FB39BAE1EC06A2E0F)
Полное имя : Blinky.Bill.The.Movie.2015.D.BDRip.720p.mkv
Формат : Matroska
Версия формата : Version 2
Размер файла : 3,51 Гбайт
Продолжительность : 1 ч. 30 м.
Общий поток : 5516 Кбит/сек
Дата кодирования : UTC 2016-08-27 09:12:31
Программа кодирования : mkvmerge v7.8.0 ('River Man') 32bit built on Apr 3 2015 12:11:22
Библиотека кодирования : libebml v1.3.1 + libmatroska v1.4.2
Видео
Идентификатор : 1
Формат : AVC
Формат/Информация : Advanced Video Codec
Профиль формата : High@L4.1
Параметр CABAC формата : Да
Параметр ReFrames формата : 5 кадров
Идентификатор кодека : V_MPEG4/ISO/AVC
Битрейт : 3621 Кбит/сек
Ширина : 1280 пикселей
Высота : 688 пикселей
Соотношение сторон : 1,85:1
Режим частоты кадров : Переменный
Частота кадров в оригинале : 24,000 кадра/сек
Цветовое пространство : YUV
Субдискретизация насыщенности : 4:2:0
Битовая глубина : 8 бит
Тип развёртки : Прогрессивная
Бит/(Пиксели*Кадры) : 0.171
Библиотека кодирования : x264 core 148 r2665 a01e339
Настройки программы : cabac=1 / ref=5 / deblock=1:0:0 / analyse=0x3:0x133 / me=umh / subme=8 / psy=1 / psy_rd=1.00:0.00 / mixed_ref=1 / me_range=16 / chroma_me=1 / trellis=1 / 8x8dct=1 / cqm=0 / deadzone=21,11 / fast_pskip=0 / chroma_qp_offset=-2 / threads=12 / lookahead_threads=2 / sliced_threads=0 / nr=0 / decimate=1 / interlaced=0 / bluray_compat=0 / constrained_intra=0 / bframes=3 / b_pyramid=2 / b_adapt=1 / b_bias=0 / direct=1 / weightb=1 / open_gop=0 / weightp=2 / keyint=250 / keyint_min=23 / scenecut=40 / intra_refresh=0 / rc_lookahead=40 / rc=2pass / mbtree=1 / bitrate=3621 / ratetol=1.0 / qcomp=0.60 / qpmin=0 / qpmax=69 / qpstep=4 / cplxblur=20.0 / qblur=0.5 / ip_ratio=1.40 / aq=1:1.00
Язык : English
Default : Да
Forced : Нет
Аудио #1
Идентификатор : 2
Формат : AC-3
Формат/Информация : Audio Coding 3
Расширение режима : CM (complete main)
Параметр Endianness формата : Big
Идентификатор кодека : A_AC3
Продолжительность : 1 ч. 30 м.
Вид битрейта : Постоянный
Битрейт : 384 Кбит/сек
Каналы : 6 каналов
Расположение каналов : Front: L C R, Side: L R, LFE
Частота : 48,0 КГц
Частота кадров : 31,250 кадров/сек (1536 spf)
Метод сжатия : С потерями
Размер потока : 250 Мбайт (7%)
Заголовок : iTunes
Язык : Russian
Default : Да
Forced : Нет
Аудио #2
Идентификатор : 3
Формат : DTS
Формат/Информация : Digital Theater Systems
Режим : 16
Параметр Endianness формата : Big
Идентификатор кодека : A_DTS
Продолжительность : 1 ч. 30 м.
Вид битрейта : Постоянный
Битрейт : 1509 Кбит/сек
Каналы : 6 каналов
Расположение каналов : Front: L C R, Side: L R, LFE
Частота : 48,0 КГц
Частота кадров : 93,750 кадра/сек (512 spf)
Битовая глубина : 16 бит
Метод сжатия : С потерями
Размер потока : 982 Мбайт (27%)
Язык : English
Default : Нет
Forced : Нет



_________________



реклама партнёра


Вернуться к началу
 Профиль Отправить личное сообщение  
 
   Похожие торренты   Автор   Торрент   Размер 
В этой теме нет новых непрочитанных сообщений. Невероятный Блинки Билл / Blinky Bill the Movie [мультфильм, приключения, семейный, 2015] HDRip, Mvo

salma3

138 | 13

1.37 ГБ

В этой теме нет новых непрочитанных сообщений. Губка Боб в 3D / The SpongeBob Movie: Sponge Out of Water (Пол Тиббит) [мультфильм, комедия, приключения, семейный, 2015] WEB-DL 720p, Dub [iTunes]

Dracon

105 | 4

2.87 ГБ

В этой теме нет новых непрочитанных сообщений. Барашек Шон / Shaun the Sheep Movie (Марк Бертон) [Приключения, Семейный, Комедия, Мультфильм, 2015] WEB-DLRip 720p, Dub [iTunes]

Dracon

1 | 1

2.54 ГБ

В этой теме нет новых непрочитанных сообщений. Губка Боб в 3D / The SpongeBob Movie: Sponge Out of Water (Пол Тиббит) [мультфильм, комедия, приключения, семейный, 2015] BDRip 1080p, Dub [iTunes]

Dracon

172 | 8

4.62 ГБ

В этой теме нет новых непрочитанных сообщений. Губка Боб в 3D / The SpongeBob Movie: Sponge Out of Water (Пол Тиббит) [мультфильм, комедия, приключения, семейный, 2015] BDRip 1080p, Dub+Sub [iTunes | 3D-Video]

Dracon

574 | 26

7.75 ГБ

В этой теме нет новых непрочитанных сообщений. Лего. Фильм / The Lego Movie [мультфильм, фэнтези, комедия, приключения, семейный, 2014] BDRip 720p, Dub [iTunes Russia]

Dracon

38 | 3

3.55 ГБ

В этой теме нет новых непрочитанных сообщений. Снупи и мелочь пузатая в кино / The Peanuts Movie [мультфильм, комедия, приключения, семейный, 2015] BDRip 720p, Avo+Sub

salma3

140 | 35

3.29 ГБ


Начать новую тему Ответить на тему  [ 1 сообщение ] 




Для Мосгорсуда, Роскомнадзора и рекламодателей:: mosgorsud-torrent[собачка]yandex.ru