Торрент файл
скачать торрент магнет ссылка Добавлен: 21 авг 2016, 21:58
Размер: 5.75 ГБ
Сидеров: 455
Личеров: 29
Автор

СообщениеДобавлено: 21 авг 2016, 21:58 

В сети
Супермодератор
Аватара пользователя
Дата регистрации:
15 фев 2012, 16:44
Возраст: 28
Спасибо: 6593 / 2145
Сообщения: 44202
Перевод: Профессиональный (полное дублирование) лицензия, cубтитры: Русские, английские
Формат: BDRip, MKV, H.264, AC3
Страна: США
Режиссер: Байрон Ховард, Рич Мур, Джаред Буш
Жанр: мультфильм, боевик, комедия, приключения, семейный
Продолжительность: 01:48:23
Год выпуска: 2016

В ролях: Джиннифер Гудвин, Джейсон Бейтман, Идрис Эльба, Дженни Слейт, Нейт Торренс, Бонни Хант, Дон Лейк, Томми Чонг, Дж.К. Симмонс, Октавия Спенсер

Описание: Добро пожаловать в Зверополис — современный город, населенный самыми разными животными, от огромных слонов до крошечных мышек. Зверополис разделен на районы, полностью повторяющие естественную среду обитания разных жителей — здесь есть и элитный район Площадь Сахары и неприветливый Тундратаун. В этом городе появляется новый офицер полиции, жизнерадостная зайчиха Джуди Хоппс, которая с первых дней работы понимает, как сложно быть маленькой и пушистой среди больших и сильных полицейских. Джуди хватается за первую же возможность проявить себя, несмотря на то, что ее партнером будет болтливый хитрый лис Ник Уайлд. Вдвоем им предстоит раскрыть сложное дело, от которого будет зависеть судьба всех обитателей Зверополиса.



Видео: 1920x804 (2.40:1), 23.976 fps, AVC MPEG-4 (H.264), ~6299 kbps, 0.170 bit/pixel
Аудио #1: Русский: 48 kHz, AC3 Dolby Digital, 6 ch, ~640 kbps [Профессиональный (полное дублирование)]
Аудио #2: Английский: 48 kHz, AC3 Dolby Digital, 6 ch, ~640 kbps [Оригинал]

Доп. информация: Русский локализованный видеоряд.

Format : Matroska
Format version : Version 2
File size : 5.75 GiB
Duration : 1h 48mn
Overall bit rate : 7 571 Kbps
Movie name : Zootopia.(2016).BDRip.1080p.[envy]
Encoded date : UTC 2016-08-13 06:04:26
Writing application : mkvmerge v5.8.0 ('No Sleep / Pillow') built on Sep 2 2012 15:37:04
Writing library : libebml v1.2.3 + libmatroska v1.3.0

Video
ID : 1
Format : AVC
Format/Info : Advanced Video Codec
Format profile :
Format settings, CABAC : Yes
Format settings, ReFrames : 5 frames
Codec ID : V_MPEG4/ISO/AVC
Duration : 1h 48mn
Bit rate : 6 299 Kbps
Width : 1 920 pixels
Height : 804 pixels
Display aspect ratio : 2.40:1
Frame rate mode : Constant
Frame rate : 23.976 (24000/1001) fps
Color space : YUV
Chroma subsampling : 4:2:0
Bit depth : 8 bits
Scan type : Progressive
Bits/(Pixel*Frame) : 0.170
Stream size : 4.66 GiB (81%)
Title : Zootopia.(2016).BDRip.1080p.[envy]
Writing library : x264 core 148 r2705 3f5ed56
Encoding settings : cabac=1 / ref=5 / deblock=1:0:0 / analyse=0x3:0x113 / me=umh / subme=11 / psy=1 / psy_rd=1.00:0.00 / mixed_ref=1 / me_range=32 / chroma_me=1 / trellis=2 / 8x8dct=1 / cqm=0 / deadzone=21,11 / fast_pskip=0 / chroma_qp_offset=-2 / threads=12 / lookahead_threads=1 / sliced_threads=0 / nr=0 / decimate=1 / interlaced=0 / bluray_compat=0 / constrained_intra=0 / bframes=5 / b_pyramid=2 / b_adapt=2 / b_bias=0 / direct=3 / weightb=1 / open_gop=0 / weightp=2 / keyint=240 / keyint_min=23 / scenecut=40 / intra_refresh=0 / rc=2pass / mbtree=0 / bitrate=6299 / ratetol=2.0 / qcomp=0.60 / qpmin=0 / qpmax=69 / qpstep=4 / cplxblur=20.0 / qblur=0.5 / ip_ratio=1.40 / pb_ratio=1.30 / aq=2:0.80
Language : English
Default : Yes
Forced : No

Audio #1
ID : 2
Format : AC-3
Format/Info : Audio Coding 3
Mode extension : CM (complete main)
Format settings, Endianness : Big
Codec ID : A_AC3
Duration : 1h 48mn
Bit rate mode : Constant
Bit rate : 640 Kbps
Channel(s) : 6 channels
Channel positions : Front: L C R, Side: L R, LFE
Sampling rate : 48.0 KHz
Frame rate : 31.250 fps (1536 spf)
Compression mode : Lossy
Stream size : 498 MiB (8%)
Title : Dub
Language : Russian
Default : Yes
Forced : No

Audio #2
ID : 3
Format : AC-3
Format/Info : Audio Coding 3
Mode extension : CM (complete main)
Format settings, Endianness : Big
Codec ID : A_AC3
Duration : 1h 48mn
Bit rate mode : Constant
Bit rate : 640 Kbps
Channel(s) : 6 channels
Channel positions : Front: L C R, Side: L R, LFE
Sampling rate : 48.0 KHz
Frame rate : 31.250 fps (1536 spf)
Compression mode : Lossy
Stream size : 498 MiB (8%)
Title : Eng
Language : English
Default : No
Forced : No

Text #1
ID : 4
Format : UTF-8
Codec ID : S_TEXT/UTF8
Codec ID/Info : UTF-8 Plain Text
Title : Rus full
Language : Russian
Default : No
Forced : No

Text #2
ID : 5
Format : UTF-8
Codec ID : S_TEXT/UTF8
Codec ID/Info : UTF-8 Plain Text
Title : Eng full
Language : English
Default : No
Forced : No

Menu
00:00:00.000 : :Chapter 01
00:00:59.559 : :Chapter 02
00:05:50.099 : :Chapter 03
00:10:05.563 : :Chapter 04
00:14:31.537 : :Chapter 05
00:18:24.019 : :Chapter 06
00:26:03.353 : :Chapter 07
00:30:57.438 : :Chapter 08
00:37:07.099 : :Chapter 09
00:40:43.440 : :Chapter 10
00:44:31.752 : :Chapter 11
00:51:40.430 : :Chapter 12
00:55:40.378 : :Chapter 13
01:00:48.269 : :Chapter 14
01:03:37.855 : :Chapter 15
01:09:19.822 : :Chapter 16
01:13:39.164 : :Chapter 17
01:17:07.372 : :Chapter 18
01:21:52.365 : :Chapter 19
01:28:19.168 : :Chapter 20
01:32:43.432 : :Chapter 21
01:36:12.141 : :Chapter 22





_________________
Проголосуй за трекер Открытый торрент трекер - RUS-MEDIA.ORG

Проголосуй Открытый торрент трекер - RUS-MEDIA.ORG



реклама партнёра


Вернуться к началу
 Профиль Отправить личное сообщение  
 
   Похожие торренты   Автор   Торрент   Размер 
В этой теме нет новых непрочитанных сообщений. Зверополис / Zootopia (мультфильм, боевик, комедия, криминал, приключения, семейный, 2016) BDRip 1080p от New-Team & qqss44 | Локализованная версия | Лицензия

marya111

310 | 87

7.75 ГБ

В этой теме нет новых непрочитанных сообщений. Зверополис 3Д / Zootopia 3D [мультфильм, боевик, комедия, криминал, 2016] Blu-Ray CEE 1080p, Dub [3D-Video] [Лицензия]

salma3

20 | 15

45.8 ГБ

В этой теме нет новых непрочитанных сообщений. Зверополис / Zootopia (Байрон Ховард, Рич Мур, Джаред Буш) [2016, мультфильм, боевик, комедия, криминал, приключения, семейный, BDRip 720p | Лицензия] Dub

marya111

342 | 11

3.32 ГБ

В этой теме нет новых непрочитанных сообщений. Зверополис / Zootopia [2D/3D] [USA Transfer] (Байрон Ховард, Рич Мур, Джаред Буш) [2016, мультфильм, боевик, комедия, криминал, приключения, семейный, BD Remux 2D/3D 1080p] DUB [iTunes]

marya111

17 | 6

32.5 ГБ

В этой теме нет новых непрочитанных сообщений. Зверополис / Zootopia (Мультфильм, полнометражный, детский, семейный, комедия, приключения, 2016) BDRip-AVC от MediaClub | D, P, А

marya111

38 | 2

3.11 ГБ

В этой теме нет новых непрочитанных сообщений. Зверополис / Zootopia (Байрон Ховард, Рич Мур, Джаред Буш) [2016, мультфильм, боевик, комедия, криминал, приключения, семейный, HDRip | Лицензия] Dub

marya111

2184 | 80

1.45 ГБ

В этой теме нет новых непрочитанных сообщений. Зверополис / Zootopia [приключения, комедия, семейный, 2016] BDRip, Dub [Лицензия]

salma3

212 | 5

1.46 ГБ


Начать новую тему Ответить на тему  [ 1 сообщение ] 




Для Мосгорсуда, Роскомнадзора и рекламодателей:: mosgorsud-torrent[собачка]yandex.ru