Торрент файл
скачать торрент магнет ссылка Добавлен: 17 авг 2016, 11:03
Размер: 5.47 ГБ
Сидеров: 1
Личеров: 1
Автор

СообщениеДобавлено: 17 авг 2016, 11:03 

Не в сети
Супермодератор
Аватара пользователя
Дата регистрации:
15 фев 2012, 16:44
Возраст: 27
Спасибо: 5135 / 2089
Сообщения: 17406
Год выхода: 2016
Жанр: Мультфильм, полнометражный, семейный
Режиссер: Кевин Манро, Джерика Клилэнд

В ролях: Джеймс Арнольд Тейлор, Дэвид Кэй, Джим Уорд, Йен Джеймс Корлетт, Эндрю Каунден, Розарио Доусон, Брайан Добсон, Брайан Драммонд, Пол Джаматти

О фильме:
Большеухий ловкач Рэтчет всегда мечтал присоединиться к Галактическим космическим рейнджерам, но самовлюбленный супергерой Капитан Кварк не принимает его в команду. И все же, когда робот Кланк приносит весть о коварном плане злодея Дрека из расы Блэрг создать новую планету для своего вида, предварительно избавившись от рейнджеров и уничтожив Солнечную систему, миссия по спасению галактики ложится именно на пушистые плечи остряка Рэтчета. А металлический Кланк становится его верным спутником и помощником.



Страна: Гонконг, Канада, США
Студия: Aperture Media Partners, Blockade Entertainment, CNHK Media
Продолжительность: 01:34:05
Перевод: Дублированный | iTunes
Файл
Кодек: MPEG-4
Качество: BDRip 1080p
Видео: 1920x800, 7168 Kbit/s, 23.976 fps
Звук:
Аудио #01: 48 kHz, AC3, 5.1, 384 Kbps | Дублированный, iTunes |
Аудио #02: 48 kHz, DTS, 5.1, 768 kbps | Оригинал |
Субтитры: Английские

General
Unique ID : 202464438794059039413592776343302972357 (0x98513B8764F2BC6B9700BB20AF8823C5)
Complete name : G:VideoRatchet.and.Clank.2016.BDRip.1080p.ExKinoRay.mkv
Format : Matroska
Format version : Version 4 / Version 2
File size : 5.47 GiB
Duration : 1h 34mn
Overall bit rate : 8 323 Kbps
Movie name : Ratchet.and.Clank.2016.BDRip.1080p.ExKinoRay
Encoded date : UTC 2016-08-16 08:23:00
Writing application : mkvmerge v8.3.0 ('Over the Horizon') 64bit
Writing library : libebml v1.3.1 + libmatroska v1.4.2
Video
ID : 1
Format : AVC
Format/Info : Advanced Video Codec
Format profile : High@L4.1
Format settings, CABAC : Yes
Format settings, ReFrames : 5 frames
Codec ID : V_MPEG4/ISO/AVC
Duration : 1h 34mn
Bit rate : 7 168 Kbps
Width : 1 920 pixels
Height : 800 pixels
Display aspect ratio : 2.40:1
Frame rate mode : Constant
Frame rate : 23.976 (24000/1001) fps
Color space : YUV
Chroma subsampling : 4:2:0
Bit depth : 8 bits
Scan type : Progressive
Bits/(Pixel*Frame) : 0.195
Stream size : 4.71 GiB (86%)
Writing library : x264 core 148 r2699+6+41 29a38aa Yuuki [8-bit@4:2:0 X86_64][GCC 5.3.0]
Encoding settings : cabac=1 / ref=5 / deblock=1:-3:-3 / analyse=0x3:0x113 / me=umh / subme=11 / psy=1 / fade_compensate=0.00 / psy_rd=1.00:0.05 / mixed_ref=1 / me_range=32 / chroma_me=1 / trellis=2 / 8x8dct=1 / cqm=0 / deadzone=21,11 / fast_pskip=0 / chroma_qp_offset=-2 / threads=4 / lookahead_threads=1 / sliced_threads=0 / nr=0 / decimate=1 / interlaced=0 / bluray_compat=0 / constrained_intra=0 / fgo=0 / bframes=8 / b_pyramid=2 / b_adapt=2 / b_bias=0 / direct=3 / weightb=1 / open_gop=0 / weightp=2 / keyint=250 / keyint_min=23 / scenecut=40 / intra_refresh=0 / rc_lookahead=40 / rc=crf / mbtree=0 / crf=16.6000 / qcomp=0.60 / qpmin=0:0:0 / qpmax=69:69:69 / qpstep=4 / vbv_maxrate=50000 / vbv_bufsize=40000 / crf_max=0.0 / nal_hrd=none / filler=0 / ip_ratio=1.40 / pb_ratio=1.30 / aq=3:0.90
Language : English
Default : Yes
Forced : No
Audio #1
ID : 2
Format : AC-3
Format/Info : Audio Coding 3
Mode extension : CM (complete main)
Format settings, Endianness : Big
Codec ID : A_AC3
Duration : 1h 34mn
Bit rate mode : Constant
Bit rate : 384 Kbps
Channel(s) : 6 channels
Channel positions : Front: L C R, Side: L R, LFE
Sampling rate : 48.0 KHz
Frame rate : 31.250 fps (1536 spf)
Compression mode : Lossy
Stream size : 258 MiB (5%)
Title : DUB (iTunes)
Language : Russian
Default : Yes
Forced : No
Audio #2
ID : 3
Format : DTS
Format/Info : Digital Theater Systems
Mode : 16
Format settings, Endianness : Big
Codec ID : A_DTS
Duration : 1h 34mn
Bit rate mode : Constant
Bit rate : 768 Kbps
Channel(s) : 6 channels
Channel positions : Front: L C R, Side: L R, LFE
Sampling rate : 48.0 KHz
Frame rate : 93.750 fps (512 spf)
Bit depth : 24 bits
Compression mode : Lossy
Stream size : 517 MiB (9%)
Language : French
Default : No
Forced : No
Text
ID : 4
Format : UTF-8
Codec ID : S_TEXT/UTF8
Codec ID/Info : UTF-8 Plain Text
Duration : 1h 32mn
Bit rate : 66 bps
Count of elements : 1480
Stream size : 45.3 KiB (0%)
Language : English
Default : No
Forced : No
Menu
00:00:00.000 : en:00:00:00.000
00:03:12.526 : en:00:03:12.526
00:08:50.822 : en:00:08:50.822
00:14:23.112 : en:00:14:23.112
00:17:40.059 : en:00:17:40.059
00:21:49.892 : en:00:21:49.892
00:26:15.783 : en:00:26:15.783
00:31:23.340 : en:00:31:23.340
00:36:22.847 : en:00:36:22.847
00:41:23.940 : en:00:41:23.940
00:46:11.185 : en:00:46:11.185
00:49:30.342 : en:00:49:30.342
00:53:28.247 : en:00:53:28.247
00:57:00.459 : en:00:57:00.459
01:01:44.743 : en:01:01:44.743
01:07:42.767 : en:01:07:42.767
01:11:16.731 : en:01:11:16.731
01:18:47.473 : en:01:18:47.473
01:23:20.120 : en:01:23:20.120
01:27:53.810 : en:01:27:53.810

Релиз от: Автор релиза:


_________________



реклама партнёра


Вернуться к началу
 Профиль Отправить личное сообщение  
 
   Похожие торренты   Автор   Торрент   Размер 
В этой теме нет новых непрочитанных сообщений. Рэтчет и Кланк: Галактические рейнджеры / Ratchet & Clank [Мультфильм, полнометражный, семейный, 2015] BDRip 720p, Dub [iTunes]

salma3

0 | 1

5.15 ГБ

В этой теме нет новых непрочитанных сообщений. Рэтчет и Кланк: Галактические рейнджеры / Ratchet & Clank [Мультфильм, Фантастика, Боевик, 2015] BDRip 1080p, Dub [3D-Video] [iTunes]

salma3

5 | 4

5.53 ГБ

В этой теме нет новых непрочитанных сообщений. Рэтчет и Кланк: Галактические рейнджеры / Ratchet & Clank (мультфильм, фантастика, боевик, комедия, приключения, семейный, 2015) BDRip-AVC от HELLYWOOD | iTunes

marya111

31 | 1

1.32 ГБ

В этой теме нет новых непрочитанных сообщений. Рэтчет и Кланк: Галактические рейнджеры / Ratchet & Clank [Мультфильм, фантастика, боевик, комедия, приключения, 2015] BDRip, Dub [iTunes]

salma3

6 | 3

1.42 ГБ

В этой теме нет новых непрочитанных сообщений. Тайная жизнь домашних животных / The Secret Life of Pets (Мультфильм, комедия, семейный, полнометражный, 2016) BDRemux 1080p от ExKinoRay | iTunes

marya111

0 | 0

17.53 ГБ

В этой теме нет новых непрочитанных сообщений. Самолеты / Planes [Мультфильм, комедия, семейный, полнометражный, 2013] BDRip 1080p, Dub+Sub [Лицензия]

salma3

22 | 2

6.93 ГБ

В этой теме нет новых непрочитанных сообщений. Дом / Home (Тим Джонсон) [мультфильм, фантастика, фэнтези, комедия, приключения, семейный, 2015] BDRip 1080p, Dub [iTunes]

Dracon

67 | 6

4.62 ГБ


Начать новую тему Ответить на тему  [ 1 сообщение ] 




Для Мосгорсуда, Роскомнадзора и рекламодателей:: mosgorsud-torrent[собачка]yandex.ru