Торрент файл
скачать торрент магнет ссылка Добавлен: 01 авг 2016, 11:55
Размер: 4.76 ГБ
Сидеров: 7
Личеров: 1
Автор

СообщениеДобавлено: 01 авг 2016, 11:55 

Не в сети
Супермодератор
Аватара пользователя
Дата регистрации:
15 фев 2012, 16:44
Возраст: 27
Спасибо: 5143 / 2090
Сообщения: 17495
Год выхода: 2016
Жанр: Мультфильм, боевик, комедия, семейный
Режиссер: Клэй Кэйтис, Фергал Рейли

В ролях: Питер Динклэйдж, Джейсон Судейкис, Кейт МакКиннон, Кигэн-Майкл Ки, Титус Берджесс, Шон Пенн, Билл Хейдер, Майя Рудольф, Айк Баринхолц, Дэнни МакБрайд

О фильме:
Из-за своего буйного нрава Ред постоянно попадает в различные передряги. После очередного фонтана агрессии местный суд приговаривает его к бессрочному посещению курсов управления гневом. Между делом, на птичий остров приплывают зеленые свиньи и обманом выкрадывают у птичек все их яйца. Ред и его друзья отправляются на поиски легендарного Могучего Орла, чтобы заручиться его поддержкой и вернуть похищенное.



Страна: Финляндия, США
Продолжительность: 01:37:14
Перевод: Дублированный | iTunes
Файл
Кодек: MPEG-4
Качество: BDRip 720p
Видео: 1280x690, 5117 Kbit/s, 23.976 fps
Звук:
Аудио #01: 48 kHz, AC3, 5.1, 384 Kbps | Дублированный, iTunes |
Аудио #02: 48 kHz, DTS, 5.1, 1510 kbps | Оригинал |
Субтитры: Русские, английские


General
Unique ID : 221938390534808668407739528727169854493 (0xA6F7C77A91C01D1CA94BE0C72DA3EC1D)
Complete name : G:VideoThe.Angry.Birds.Movie.2016.D.BDRip.720p.ExKinoRay.mkv
Format : Matroska
Format version : Version 4 / Version 2
File size : 4.76 GiB
Duration : 1h 37mn
Overall bit rate : 7 013 Kbps
Movie name : The.Angry.Birds.Movie.2016.D.BDRip.720p.ExKinoRay
Encoded date : UTC 2016-07-31 00:18:29
Writing application : mkvmerge v8.3.0 ('Over the Horizon') 64bit
Writing library : libebml v1.3.1 + libmatroska v1.4.2
Video
ID : 1
Format : AVC
Format/Info : Advanced Video Codec
Format profile : High@L4.1
Format settings, CABAC : Yes
Format settings, ReFrames : 9 frames
Codec ID : V_MPEG4/ISO/AVC
Duration : 1h 37mn
Bit rate : 5 117 Kbps
Width : 1 280 pixels
Height : 690 pixels
Display aspect ratio : 1.85:1
Frame rate mode : Constant
Frame rate : 23.976 (24000/1001) fps
Color space : YUV
Chroma subsampling : 4:2:0
Bit depth : 8 bits
Scan type : Progressive
Bits/(Pixel*Frame) : 0.242
Stream size : 3.48 GiB (73%)
Writing library : x264 core 142 r2431+42 c69a006 tMod [8-bit@all X86_64]
Encoding settings : cabac=1 / ref=9 / deblock=1:-1:-1 / analyse=0x3:0x133 / me=umh / subme=11 / psy=1 / fade_compensate=0.00 / psy_rd=0.40:0.00 / mixed_ref=1 / me_range=32 / chroma_me=1 / trellis=2 / 8x8dct=1 / cqm=0 / deadzone=21,11 / fast_pskip=0 / chroma_qp_offset=-2 / threads=12 / lookahead_threads=2 / sliced_threads=0 / nr=0 / decimate=0 / interlaced=0 / bluray_compat=0 / constrained_intra=0 / fgo=0 / bframes=8 / b_pyramid=2 / b_adapt=2 / b_bias=0 / direct=3 / weightb=1 / open_gop=0 / weightp=2 / keyint=240 / keyint_min=23 / scenecut=40 / intra_refresh=0 / rc_lookahead=60 / rc=crf / mbtree=0 / crf=15.5000 / qcomp=0.60 / qpmin=0:0:0 / qpmax=69:69:69 / qpstep=4 / vbv_maxrate=40000 / vbv_bufsize=30000 / crf_max=0.0 / nal_hrd=none / filler=0 / ip_ratio=1.40 / pb_ratio=1.30 / aq=1:0.60 / aq-sensitivity=10.00 / aq-factor=1.00:1.00:1.00 / aq2=0 / aq3=0
Language : English
Default : Yes
Forced : No
Audio #1
ID : 2
Format : AC-3
Format/Info : Audio Coding 3
Mode extension : CM (complete main)
Format settings, Endianness : Big
Codec ID : A_AC3
Duration : 1h 37mn
Bit rate mode : Constant
Bit rate : 384 Kbps
Channel(s) : 6 channels
Channel positions : Front: L C R, Side: L R, LFE
Sampling rate : 48.0 KHz
Frame rate : 31.250 fps (1536 spf)
Compression mode : Lossy
Delay relative to video : 960ms
Stream size : 267 MiB (5%)
Title : DUB [iTunes]
Language : Russian
Default : Yes
Forced : No
Audio #2
ID : 3
Format : DTS
Format/Info : Digital Theater Systems
Mode : 16
Format settings, Endianness : Big
Codec ID : A_DTS
Duration : 1h 37mn
Bit rate mode : Constant
Bit rate : 1 509 Kbps
Channel(s) : 6 channels
Channel positions : Front: L C R, Side: L R, LFE
Sampling rate : 48.0 KHz
Frame rate : 93.750 fps (512 spf)
Bit depth : 24 bits
Compression mode : Lossy
Stream size : 1.02 GiB (22%)
Title : Original
Language : English
Default : No
Forced : No
Text #1
ID : 4
Format : UTF-8
Codec ID : S_TEXT/UTF8
Codec ID/Info : UTF-8 Plain Text
Duration : 1h 25mn
Bit rate : 2 bps
Count of elements : 54
Stream size : 1.71 KiB (0%)
Title : Forced
Language : Russian
Default : Yes
Forced : No
Text #2
ID : 5
Format : UTF-8
Codec ID : S_TEXT/UTF8
Codec ID/Info : UTF-8 Plain Text
Duration : 1h 29mn
Bit rate : 99 bps
Count of elements : 1579
Stream size : 65.1 KiB (0%)
Title : Full
Language : Russian
Default : No
Forced : No
Text #3
ID : 6
Format : UTF-8
Codec ID : S_TEXT/UTF8
Codec ID/Info : UTF-8 Plain Text
Duration : 1h 29mn
Bit rate : 64 bps
Count of elements : 1518
Stream size : 42.0 KiB (0%)
Title : Full
Language : English
Default : No
Forced : No
Text #4
ID : 7
Format : UTF-8
Codec ID : S_TEXT/UTF8
Codec ID/Info : UTF-8 Plain Text
Duration : 1h 32mn
Bit rate : 89 bps
Count of elements : 2275
Stream size : 60.5 KiB (0%)
Title : SDH
Language : English
Default : No
Forced : No
Menu
00:00:00.000 : en:
00:06:26.427 : en:
00:09:26.857 : en:
00:15:03.193 : en:
00:21:33.500 : en:
00:26:52.235 : en:
00:32:34.744 : en:
00:36:51.167 : en:
00:42:17.952 : en:
00:47:27.261 : en:
00:54:37.816 : en:
00:59:26.229 : en:
01:06:18.974 : en:
01:10:21.508 : en:
01:17:45.118 : en:
01:23:17.492 : en:
01:28:06.864 : en:
01:33:28.811 : en:
01:42:20.759 : en:
01:44:26.426 : en:


Релиз от: Автор релиза:


_________________



реклама партнёра


Вернуться к началу
 Профиль Отправить личное сообщение  
 
   Похожие торренты   Автор   Торрент   Размер 
В этой теме нет новых непрочитанных сообщений. Angry Birds в кино / The Angry Birds Movie (2016) ТС

marya111

238 | 0

1.46 ГБ

В этой теме нет новых непрочитанных сообщений. Angry Birds в кино / Angry Birds (2016) WEBRip [H.264/720p-LQ]

marya111

82 | 5

2.33 ГБ

В этой теме нет новых непрочитанных сообщений. Злые птички / Angry Birds Toons [01-52 из 52] [Мультсериал, 2013] WEB-DL 720p, Avo

Dracon

229 | 108

3.77 ГБ

В этой теме нет новых непрочитанных сообщений. Angry Birds - New Plants [Arcade, 2014] [Лицензия]

DBCooper

101 | 4

8.89 МБ

В этой теме нет новых непрочитанных сообщений. Angry Birds - Plants II [Arcade, 2014] [Лицензия]

DBCooper

92 | 6

8.85 МБ

В этой теме нет новых непрочитанных сообщений. Индюки: Назад в будущее / Free Birds [Мультфильм, комедия, 2013] BDRip 720p, Dub [Лицензия]

Dracon

0 | 2

3.96 ГБ

В этой теме нет новых непрочитанных сообщений. Злостный видеоигровой задрот: Кино / Angry Video Game Nerd: The Movie [Фантастика, комедия, приключения, 2014] WEBRip, Avo

salma3

150 | 5

1.37 ГБ


Начать новую тему Ответить на тему  [ 1 сообщение ] 




Для Мосгорсуда, Роскомнадзора и рекламодателей:: mosgorsud-torrent[собачка]yandex.ru