Торрент файл
скачать торрент магнет ссылка Добавлен: 09 апр 2011, 13:36
Размер: 1.89 ГБ
Сидеров: 268
Личеров: 24
Автор

СообщениеДобавлено: 09 апр 2011, 13:36 

Не в сети
Супермодератор
Аватара пользователя
Дата регистрации:
22 май 2010, 11:03
Возраст: 32
Спасибо: 7690 / 13
Сообщения: 49871
Незнайка на Луне


Перевод: Не требуется, cубтитры: есть (отключаемые русские, английские)

Формат: DVDRip-AVC, MP4, H.264, AC3

Страна: Россия

Режиссер: Юрий Бутырин, Александр Люткевич

Жанр: анимация, сказка, приключения, фантастика, сатира, мюзикл

Продолжительность: 02:31:49

Год выпуска: 1997-1999

В ролях:
Венера Рахимова, Кристина Орбакайте, Светлана Степченко, Алексей Борзунов, Клара Румянова, Александр Леньков, Артем Карапетян, Михаил Кононов, Светлана Харлап, Александр Леньков, Александр Пожаров, Рудольф Панков, Борис Шувалов, Юрий Саранцев, Ян Янакиев и другие

Описание:
Фантастический мультипликационный фильм «Незнайка на Луне» создан по мотивам одноименного романа-сказки Николая Носова. Сюжет мультфильма наделён большой долей юмора и значительно отличается от сюжета книги.

«Незнайка на Луне» снят по классической технологии полной анимации, которая не использовалась долгое время в 90-х в связи с высокой себестоимостью.

При разработке персонажей мультфильма решили не придумывать им новый облик, а использовать тот, что нарисовал Генрих Оскарович Вальк, который иллюстрировал первые издания трилогии Николая Носова. Тем не менее Незнайка в мультфильме отличается от того, что был на иллюстрациях (на них Незнайка — брюнет). Специально для мультфильма Вальк нарисовал новый облик Незнайки, который было легче анимировать.
Над фильмом работали профессионалы мультипликаторы, получившие уроки мастерства в павильонах студии «Союзмультфильм»: Юрий Бутырин, Александр Мазаев, Эраст Меладзе, а также молодые таланты Александр Люткевич, Андрей Игнатенко и Владимир Гогурин. Сценарий написали драматурги В. Голованов и С. Иванов. В качестве шеф-консультанта проекта выступил Фёдор Савельевич Хитрук (автор Винни-Пуха и Бонифация).

В очаровательной детской фантастике с захватывающим сюжетом, юмором и добротой за развлекательным жанром кроется глубокий смысл. Наряду с приключениями ребенка ждут жизненно важные знания об экономике, физике и астрономии.


Рейтинг на IMDB: 7.1/10

Релиз группы:


Видео: MPEG4 Video (H264) 768x576 25.00fps, 1325 kbps, 0.120 bit*pixel
Аудио: Dolby AC3, 48000Hz, 5ch, 448 kbps

MediaInfo: General
Complete name: C:\Закачки\Мультфильмы\Neznaika_na_Lune_[tfile.ru].mp4
Format: Matroska
File size: 1.89 GiB
Duration: 2h 31mn
Overall bit rate: 1 780 Kbps
Encoded date: UTC 2010-10-08 21:23:06
Writing application: mkvmerge v2.4.0 ('Fumbling Towards Ecstasy') built on Oct 11 2008 20:13:15
Writing library: libebml v0.7.7 + libmatroska v0.8.1

Video
ID: 1
Format: AVC
Format/Info: Advanced Video Codec
Format profile:
Format settings, CABAC: Yes
Format settings, ReFrames: 10 frames
Muxing mode: Container profile=Unknown@4.1
Codec ID: V_MPEG4/ISO/AVC
Duration: 2h 31mn
Bit rate: 1 325 Kbps
Width: 768 pixels
Height: 576 pixels
Display aspect ratio: 4:3
Frame rate: 25.000 fps
Color space: YUV
Chroma subsampling: 4:2:0
Bit depth: 8 bits
Scan type: Progressive
Bits/(Pixel*Frame): 0.120
Stream size: 1.37 GiB (73%)
Writing library: x264 core 65 r999kMod cc51047
Encoding settings: cabac=1 / ref=10 / deblock=1:-3:-3 / analyse=0x3:0x133 / me=umh / subme=9 / psy_rd=1.0:0.0 / mixed_ref=1 / me_range=32 / chroma_me=1 / trellis=2 / 8x8dct=1 / cqm=0 / deadzone=21,11 / chroma_qp_offset=-2 / threads=4 / thread_queue=4 / nr=0 / decimate=1 / mbaff=0 / bframes=6 / b_pyramid=1 / b_adapt=1 / b_bias=0 / direct=3 / wpredb=1 / keyint=250 / keyint_min=25 / scenecut=40(pre) / rc=2pass / bitrate=1325 / ratetol=1.0 / qcomp=0.60 / qpmin=16 / qpmax=51 / qpstep=4 / cplxblur=20.0 / qblur=0.5 / ip_ratio=1.40 / pb_ratio=1.30 / aq=1:1.00
Language: Russian

Audio
ID: 2
Format: AC-3
Format/Info: Audio Coding 3
Mode extension: CM (complete main)
Codec ID: A_AC3
Duration: 2h 31mn
Bit rate mode: Constant
Bit rate: 448 Kbps
Channel(s): 5 channels
Channel positions: Front: L C R, Side: L R
Sampling rate: 48.0 KHz
Stream size: 487 MiB (25%)
Language: Russian

Text #1
ID: 3
Format: VobSub
Codec ID: S_VOBSUB
Codec ID/Info: The same subtitle format used on DVDs
Title: Русские
Language: Russian

Text #2
ID: 4
Format: VobSub
Codec ID: S_VOBSUB
Codec ID/Info: The same subtitle format used on DVDs
Title: Английские
Language: English















реклама партнёра


Вернуться к началу
 Профиль Отправить личное сообщение  
 
   Похожие торренты   Автор   Торрент   Размер 
В этой теме нет новых непрочитанных сообщений. Советские мультфильмы - сборник (Александр Иванов, Витольд Бордзиловский, Геннадий Сокольский...) [мультфильмы, 1930-1980] DVDRip

Dracon

64 | 62

144.69 ГБ

В этой теме нет новых непрочитанных сообщений. Ловушка на Луне / Moontrap [Фантастика, 1989] HDRip-AVC, Avo

salma3

20 | 2

745.87 МБ

В этой теме нет новых непрочитанных сообщений. Горец: Ворон / Highlander: The Raven [s01] [боевик, приключения, фантастика, 1998–1999] DVDRip, Mvo

salma3

16 | 5

8.14 ГБ

В этой теме нет новых непрочитанных сообщений. Ловушка на Луне / Moontrap [Фантастика, 1989] BDRip 1080p, Avo

salma3

106 | 35

5.74 ГБ

В этой теме нет новых непрочитанных сообщений. Класс 1999 / Class of 1999 [ужасы, фантастика, боевик, 1990] DVDRip-AVC, Dvo

salma3

128 | 38

2.66 ГБ

В этой теме нет новых непрочитанных сообщений. Класс 1999: Новый учитель / Class of 1999 II: The Substitute [ужасы, фантастика, боевик, триллер, 1994] DVDRip-AVC, Dvo

salma3

65 | 11

2.48 ГБ

В этой теме нет новых непрочитанных сообщений. Матрица / The Matrix [Фантастика, боевик, приключения, 1999] BDRemux 1080p, Dub

salma3

35 | 14

33.82 ГБ


Начать новую тему Ответить на тему  [ 1 сообщение ] 




Для Мосгорсуда, Роскомнадзора и рекламодателей:: mosgorsud-torrent[собачка]yandex.ru