COVID-19 - Последняя информация о коронавирусе на сайте Минздрава




Торрент файл
скачать торрент магнет ссылка Добавлен: 09 апр 2011, 13:34
Размер: 744.4 МБ
Сидеров: 174
Личеров: 20
Автор

СообщениеДобавлено: 09 апр 2011, 13:34 

Не в сети
Супермодератор
Аватара пользователя
Дата регистрации:
22 май 2010, 11:03
Возраст: 36
Спасибо: 7939 / 13
Сообщения: 49828
Три богатыря и Шамаханская царица


Перевод: Не требуется, cубтитры: отсутствуют
Формат: HDRip, AVI, XviD, MP3
Страна: Россия
Режиссер: Сергей Глезин
Жанр: комедия, приключения
Продолжительность: 01:16:31
Год выпуска: 2010
Роли озвучивали: Дмитрий Быковский, Валерий Соловьев, Олег Куликович, Сергей Маковецкий, Анна Геллер, Дмитрий Высоцкий, Константин Бронзит, Мария Цветкова, Елена Шульман, Лия Медведева.

Описание: Легендарная Шамаханская царица, которая сводила с ума многих царей и простых смертных, положила свой глаз и на Киевского князя. Тот заболел любовью странной по ней. Но чтобы доставить в целости и сохранности эту чудо-богиню в Киев-Град, срочно из отпуска вызывают всех троих, уже знакомых нам, богатырей: Алёшу Поповича, Добрыню Никитича и Илью Муромца. Теперь троица должна решить, как быть дальше? Вроде бы и слухи о царице ходят нелестные, и князя жаль.

Рейтинг на Кинопоиск:7.172
Рейтинг на IMDB:6.9/10
Рейтинг MPAA:PG

Рип-от GD15091995.

Релиз-Группа:

Видео: 688x384 (1.79:1), 24.000 fps, XviD build 50 ~1222 kbps avg, 0.19 bit/pixel.
Аудио: 48 kHz, MPEG Layer 3, 2 ch, ~128.00 kbps avg.

Формат: AVI
Формат/Информация: Audio Video Interleave
Размер файла: 744 Мбайт
Продолжительность: 1 ч. 16 м.
Общий поток: 1360 Кбит/сек
Программа кодирования: VirtualDubMod 1.5.10.2 (build 2540/release)
Библиотека кодирования: VirtualDubMod build 2540/release

Видео
Идентификатор: 0
Формат: MPEG-4 Visual
Профиль формата: Advanced Simple@L5
Параметр BVOP формата: 1
Параметр QPel формата: Нет
Параметр GMC формата: Без точки перехода
Параметр матрицы формата: Default (MPEG)
Идентификатор кодека: XVID
Идентификатор кодека/Подсказка: XviD
Продолжительность: 1 ч. 16 м.
Битрейт: 1223 Кбит/сек
Ширина: 688 пикс.
Высота: 384 пикс.
Соотношение сторон: 16:9
Частота кадров: 24,000 кадр/сек
Цветовое пространство: YUV
Подвыборка цветности: 4:2:0
Битовая глубина: 8 бит
Тип развёртки: Прогрессивная
Метод сжатия: С потерями
Бит/(Пиксели*Кадры): 0.193
Размер потока: 669 Мбайт (90%)
Библиотека кодирования: XviD 1.2.1 (UTC 2008-12-04)

Аудио
Идентификатор: 1
Формат: MPEG Audio
Версия формата: Version 1
Профиль формата: Layer 3
Идентификатор кодека: 55
Идентификатор кодека/Подсказка: MP3
Продолжительность: 1 ч. 16 м.
Вид битрейта: Постоянный
Битрейт: 128 Кбит/сек
Канал(ы): 2 канала(ов)
Частота: 48,0 КГц
Метод сжатия: С потерями
Размер потока: 70,1 Мбайт (9%)
Выравнивание: Соединение по промежуткам
Продолжительность промежутка: 42мс. (1,00 видеокадр)
Время предзагрузки промежутка: 504 ms
Библиотека кодирования: LAME3.98r
Настройки программы: -m s -V 4 -q 2 -lowpass 17 -b 128












Скачать книги и аудио книги через торрент


Вернуться к началу
 Профиль Отправить личное сообщение  
 
   Похожие торренты   Автор   Торрент   Размер 
В этой теме нет новых непрочитанных сообщений. Три богатыря и принцесса Египта (2017) BDRip | Лицензия

NTL

0 | 0

745.13 МБ

В этой теме нет новых непрочитанных сообщений. Три богатыря и Наследница престола (2018) WEB-DLRip | iTunes

NTL

3 | 1

1.46 ГБ

В этой теме нет новых непрочитанных сообщений. Три богатыря и Морской царь (2016) WEB-DLRip | iTunes

NTL

0 | 0

746.81 МБ

В этой теме нет новых непрочитанных сообщений. Тридцать три несчастья / The Notorious Landlady [комедия, криминал, детектив, 1962] WEB-DL 720p, Dub

salma3

0 | 0

4.36 ГБ

В этой теме нет новых непрочитанных сообщений. Три короля / Three Kings [боевик, драма, комедия, 1999] WEB-DLRip, Dub [Open Matte]

salma3

0 | 0

1.46 ГБ

В этой теме нет новых непрочитанных сообщений. Тридцать три несчастья / The Notorious Landlady [комедия, криминал, детектив, 1962] WEB-DL 1080p, Dub

salma3

0 | 0

11.39 ГБ

В этой теме нет новых непрочитанных сообщений. Приключения Аладдина / Alad'2 [Комедия, 2018] HDRip, Dub [iTunes]

salma3

0 | 0

746.12 МБ


Начать новую тему Ответить на тему  [ 1 сообщение ] 




Для Мосгорсуда, Роскомнадзора и рекламодателей:: rstracker[собака]yandex.ru
cron