Торрент файл
скачать торрент магнет ссылка Добавлен: 04 апр 2016, 13:03
Размер: 3.62 ГБ
Сидеров: 7
Личеров: 4
Автор

СообщениеДобавлено: 04 апр 2016, 13:03 

Не в сети
Супермодератор
Аватара пользователя
Дата регистрации:
15 фев 2012, 16:44
Возраст: 27
Спасибо: 5139 / 2089
Сообщения: 17411
Год выхода: 1964
Страна: США, Япония
Жанр: мультфильм, мюзикл, фэнтези, приключения, семейный
Продолжительность: 00:51:46
Перевод: Многоголосый закадровый [R5]
Режиссеры: Ларри Ремер / Larry Roemer

Роли озвучивали: Берл Айвз, Билли Мэй Ричардс, Пол Соулз, Ларри Д. Манн, Стэн Френсис, Пол Клигман, Джанет Оренштейн, Алфи Скопп, Карл Банас, Корина Конли

О фильме:
Он родился красноносым. Но ведь это — не беда. Нос его, при том, светился, будто яркая звезда. Обижали все олени красноносого юнца. И в игру не принимали. И дразнили без конца. Но однажды, на кануне Рождества, чтоб в метель не заплутать, попросил Рудольфа Санта путь упряжке освещать. И отныне скачет первым красноносый молодец. Все олени его любят. Наш Рудольф — он лучше всех!!!

Семпл

Файл
Формат: MKV
Качество: BDRip 1080p
Видео: MPEG4-AVC, High@L4.1, 1440x1080 (4:3), ~ 9 135 Kbps, 25.000 fps
Звук #1: 48.0 KHz, AC3 2.0, 224 Kbps (Русский - MVO)
Звук #2: 48.0 KHz, AC3 5.1, 640 Kbps (Английский - оригинал)
Субтитры: английские
Главы: есть (на английском)
Олененок Рудольф.1964.BDRip.1080p.-merci.mkv
Format : Matroska
Format version : Version 2
File size : 3.62 GiB
Duration : 51mn 45s
Overall bit rate : 10.0 Mbps
Movie name : Rudolph the Red-Nosed Reindeer (1964) / by - merci -
Encoded date : UTC 2014-12-16 14:43:32
Writing application : mkvmerge v5.8.0 ('No Sleep / Pillow') built on Sep 2 2012 15:37:04
Writing library : libebml v1.2.3 + libmatroska v1.3.0
Video
ID : 1
Format : AVC
Format/Info : Advanced Video Codec
Format profile : High@L4.1
Format settings, CABAC : Yes
Format settings, ReFrames : 5 frames
Codec ID : V_MPEG4/ISO/AVC
Duration : 51mn 45s
Bit rate : 9 135 Kbps
Width : 1 440 pixels
Height : 1 080 pixels
Display aspect ratio : 4:3
Frame rate mode : Constant
Frame rate : 23.976 (24000/1001) fps
Color space : YUV
Chroma subsampling : 4:2:0
Bit depth : 8 bits
Scan type : Progressive
Bits/(Pixel*Frame) : 0.245
Stream size : 3.23 GiB (89%)
Title : Олененок Рудольф (Рудольф - красноносый олень)
Writing library : x264 core 125 r2208 d9d2288
Encoding settings : cabac=1 / ref=5 / deblock=1:-3:-3 / analyse=0x3:0x133 / me=umh / subme=9 / psy=1 / psy_rd=0.90:0.00 / mixed_ref=1 / me_range=32 / chroma_me=1 / trellis=2 / 8x8dct=1 / cqm=0 / deadzone=21,11 / fast_pskip=0 / chroma_qp_offset=-2 / threads=6 / lookahead_threads=1 / sliced_threads=0 / nr=0 / decimate=0 / interlaced=0 / bluray_compat=0 / constrained_intra=0 / bframes=6 / b_pyramid=2 / b_adapt=2 / b_bias=0 / direct=3 / weightb=1 / open_gop=0 / weightp=2 / keyint=240 / keyint_min=23 / scenecut=40 / intra_refresh=0 / rc=2pass / mbtree=0 / bitrate=9135 / ratetol=1.0 / qcomp=0.60 / qpmin=0 / qpmax=69 / qpstep=4 / cplxblur=20.0 / qblur=0.5 / ip_ratio=1.40 / pb_ratio=1.30 / aq=2:0.60
Language : English
Default : Yes
Forced : No
Color range : Limited
Color primaries : BT.709
Transfer characteristics : BT.709
Matrix coefficients : BT.709
Audio #1
ID : 2
Format : AC-3
Format/Info : Audio Coding 3
Mode extension : CM (complete main)
Format settings, Endianness : Big
Codec ID : A_AC3
Duration : 51mn 45s
Bit rate mode : Constant
Bit rate : 224 Kbps
Channel(s) : 2 channels
Channel positions : Front: L R
Sampling rate : 48.0 KHz
Frame rate : 31.250 fps (1536 spf)
Compression mode : Lossy
Stream size : 82.9 MiB (2%)
Title : AC3 2.0 224 kbps - MVO [R5]
Language : Russian
Default : Yes
Forced : No
Audio #2
ID : 3
Format : AC-3
Format/Info : Audio Coding 3
Mode extension : CM (complete main)
Format settings, Endianness : Big
Codec ID : A_AC3
Duration : 51mn 45s
Bit rate mode : Constant
Bit rate : 640 Kbps
Channel(s) : 6 channels
Channel positions : Front: L C R, Side: L R, LFE
Sampling rate : 48.0 KHz
Frame rate : 31.250 fps (1536 spf)
Compression mode : Lossy
Stream size : 237 MiB (6%)
Title : AC3 5.1 640 kbps - Original
Language : English
Default : No
Forced : No
Text
ID : 4
Format : UTF-8
Codec ID : S_TEXT/UTF8
Codec ID/Info : UTF-8 Plain Text
Title : Eng
Language : English
Default : No
Forced : No
Menu
00:00:00.000 : en:Newspaper Opening
00:00:32.032 : en:Sam the Snowman
00:02:48.001 : en:Opening Credits
00:03:56.319 : en:Rudolph Enters
00:05:20.111 : en:"Jingle, Jingle, Jingle"
00:07:34.871 : en:Christmas Elves
00:09:20.185 : en:Hermey "Misfit" Solo
00:10:19.953 : en:Rudolph "Misfit" Solo
00:10:39.055 : en:Reindeer Games
00:11:49.459 : en:"We Are Santa's Elves"
00:14:54.519 : en:Flight Practice
00:19:26.248 : en:"There's Always Tomorrow"
00:22:09.328 : en:"Where a Couple of Misfits"
00:24:16.955 : en:Yukon Cornelius
00:25:22.521 : en:"Silver and Gold"
00:27:22.599 : en:Snow Monster Chase
00:30:40.213 : en:Misfit Island
00:31:28.303 : en:"The Most Wonderful Day of the Year"
00:36:23.807 : en:Rudolph Grows Up
00:38:24.052 : en:Rudolph Saves Ciarice
00:39:13.768 : en:Hermey & Yukon Save the Day
00:42:28.087 : en:Christmas Town
00:43:57.885 : en:Christmas Preparation
00:46:08.182 : en:"Holly Jolly Christmas"
00:47:21.630 : en:Christmas Eve
00:48:43.754 : en:Return to the Misfit Island
00:50:01.081 : en:"Rudolph the Red-Nosed Reindeer"


Релиз от: -merci-


_________________



реклама партнёра


Вернуться к началу
 Профиль Отправить личное сообщение  
 
   Похожие торренты   Автор   Торрент   Размер 
В этой теме нет новых непрочитанных сообщений. Оленёнок Рудольф / Rudolph the Red-Nosed Reindeer: The Movie [Мультфильм, Семейный, Мюзикл, 1998] DVDRip, Dub+Avo

salma3

81 | 6

1.48 ГБ

В этой теме нет новых непрочитанных сообщений. Лабиринт / Labyrinth [мюзикл, фэнтези, приключения, семейный, 1986] BDRip 1080p, 3Mvo+3Avo

salma3

62 | 46

8.8 ГБ

В этой теме нет новых непрочитанных сообщений. Механика сердца / Jack et la mecanique du coeur [мультфильм, мюзикл, фэнтези, драма, мелодрама, приключения, 2013] BDRip 1080p, Mvo

Dracon

2 | 2

5.77 ГБ

В этой теме нет новых непрочитанных сообщений. Джеймс и гигантский персик / James and the Giant Peach [Мюзикл, фэнтези, приключения, семейный, 1996] BDRip 1080p, 2Mvo+Sub

salma3

18 | 5

9.18 ГБ

В этой теме нет новых непрочитанных сообщений. Дом / Home (Тим Джонсон) [мультфильм, фантастика, фэнтези, комедия, приключения, семейный, 2015] BDRip 1080p, Dub [iTunes]

Dracon

67 | 6

4.62 ГБ

В этой теме нет новых непрочитанных сообщений. Холодное Сердце / Frozen[Мультфильм, фэнтези, комедия, приключения, семейный, 2013] BDRip 1080p, Dub+Sub [Лицензия]

Dracon

667 | 22

5.89 ГБ

В этой теме нет новых непрочитанных сообщений. Дом / Home (Тим Джонсон) [мультфильм, фантастика, фэнтези, комедия, приключения, семейный, 2015] BDRip 1080p, Dub+Sub [лицензия]

Dracon

2 | 0

7.1 ГБ


Начать новую тему Ответить на тему  [ 1 сообщение ] 




Для Мосгорсуда, Роскомнадзора и рекламодателей:: mosgorsud-torrent[собачка]yandex.ru