Торрент файл
скачать торрент магнет ссылка Добавлен: 21 мар 2016, 12:02
Размер: 2.19 ГБ
Сидеров: 0
Личеров: 1
Автор

СообщениеДобавлено: 21 мар 2016, 12:02 

Не в сети
Супермодератор
Аватара пользователя
Дата регистрации:
15 фев 2012, 16:44
Возраст: 27
Спасибо: 5139 / 2089
Сообщения: 17429
Производство: США, Blue Sky Studios
Жанр: Мультфильм, комедия

Режиссер: Рикардо Кертис
Актеры: Блейк Андерсон, Лили Эстефан, Сет Грин, Габриэль Иглесиас, Дэнис Лири, Джон Легуизамо, Джош Пек, Куин Латифа, Рэй Романо, Шонн Уильям Скотт

Описание:
Скрэт, Мэнни, Сид, Диего и другие доисторические герои Ледникового Периода в совершенно новом уморительном анимационном приключении! Новый бизнес Сида по высиживанию яиц успешно развивается, но когда подлый кролик –пират Сквинт крадет яйца, Мэнни, Диего и остальные отправляются в бесстрашную спасательную операцию , которой суждено стать первой в истории погоней за яйцами.


Дата мировой премьеры: 20 марта 2016

Продолжительность: 01:13:49
Качество видео: WEB-DL
Перевод: Дублированный [Itunes]
Субтитры: Отсутствуют

Видео: AVC, 1280x718 (16:9), 23.976 fps, 3770 Kbps (0.171 bit/pixel)
Аудио: AC-3, 48.0 KHz, 6 ch, 384 Kbps, CBR (Russian)
Код:
Код:
 Формат                                   : Matroska
Версия формата                           : Version 4 / Version 2
Размер файла                             : 2,19 Гбайт
Продолжительность                        : 1 ч. 13 м.
Общий поток                              : 4239 Кбит/сек
Дата кодирования                         : UTC 2016-03-20 18:06:36
Программа кодирования                    : mkvmerge v8.3.0 ('Over the Horizon') 64bit
Библиотека кодирования                   : libebml v1.3.1 + libmatroska v1.4.2
DURATION                                 : 01:12:25.024000000
NUMBER_OF_FRAMES                         : 135782
NUMBER_OF_BYTES                          : 208561152
_STATISTICS_WRITING_APP                  : mkvmerge v8.3.0 ('Over the Horizon') 64bit
_STATISTICS_WRITING_DATE_UTC             : 2016-03-20 18:06:36
_STATISTICS_TAGS                         : BPS DURATION NUMBER_OF_FRAMES NUMBER_OF_BYTES

Видео
Идентификатор                            : 1
Формат                                   : AVC
Формат/Информация                        : Advanced Video Codec
Профиль формата                          :
Параметр CABAC формата                   : Нет
Параметр ReFrames формата                : 2 кадра
Идентификатор кодека                     : V_MPEG4/ISO/AVC
Продолжительность                        : 1 ч. 13 м.
Битрейт                                  : 3770 Кбит/сек
Ширина                                   : 1280 пикселей
Высота                                   : 718 пикселей
Соотношение сторон                       : 16:9
Режим частоты кадров                     : Постоянный
Частота кадров                           : 23,976 кадра/сек
Цветовое пространство                    : YUV
Субдискретизация насыщенности            : 4:2:0
Битовая глубина                          : 8 бит
Тип развёртки                            : Прогрессивная
Бит/(Пиксели*Кадры)                      : 0.171
Размер потока                            : 1,94 Гбайт (89%)
Язык                                     : English
Default                                  : Да
Forced                                   : Нет
Цветовой диапазон                        : Limited
Основные цвета                           : BT.709
Характеристики трансфера                 : BT.709
Коэффициенты матрицы                     : BT.709

Аудио
Идентификатор                            : 2
Формат                                   : AC-3
Формат/Информация                        : Audio Coding 3
Расширение режима                        : CM (complete main)
Параметр Endianness формата              : Big
Идентификатор кодека                     : A_AC3
Продолжительность                        : 1 ч. 13 м.
Вид битрейта                             : Постоянный
Битрейт                                  : 384 Кбит/сек
Каналы                                   : 6 каналов
Расположение каналов                     : Front: L C R, Side: L R, LFE
Частота                                  : 48,0 КГц
Битовая глубина                          : 16 бит
Метод сжатия                             : С потерями
Размер потока                            : 203 Мбайт (9%)
Язык                                     : Russian
Default                                  : Да
Forced                                   : Нет

Меню
00:00:00.000                             : en:1
00:02:37.532                             : en:2
00:05:22.154                             : en:3
00:07:50.677                             : en:4
00:09:15.720                             : en:5
00:12:22.698                             : en:6
00:17:46.646                             : en:7
00:21:25.990                             : en:8
00:24:32.593                             : en:9
00:29:36.772                             : en:10
00:33:33.091                             : en:11
00:38:19.836                             : en:12
00:45:28.014                             : en:13
00:48:09.425                             : en:14
00:50:43.454                             : en:15
01:03:58.791                             : en:16
 
Это официальный релиз!!!
00:00:00-00:24:32 – короткометражка «Ледниковый Период: Погоня за яйцами»
00:24:32-01:04:47 - официальные миксы из предыдущих серий, в основном про Белку
01:04:47-01:13:49 - "фильм о фильме", как снимали м/ф и рисовали персонажей.


_________________



реклама партнёра


Вернуться к началу
 Профиль Отправить личное сообщение  
 
   Похожие торренты   Автор   Торрент   Размер 
В этой теме нет новых непрочитанных сообщений. Ледниковый период: Столкновение неизбежно (мультфильм, фантастика, комедия, приключения, семейный,2016) BDRip от ExKinoRay | iTunes

marya111

0 | 0

1.42 ГБ

В этой теме нет новых непрочитанных сообщений. Ледниковый период: Столкновение неизбежно / Ice Age: Collision Course (мультфильм, фантастика, комедия, приключения, семейный, 2016) WEB-DLRip от Scarabey | iTunes

marya111

0 | 0

745.92 МБ

В этой теме нет новых непрочитанных сообщений. Ледниковый период: Столкновение неизбежно ( Мультфильм, Фантастика, Комедия, Приключения, Семейный, 2016) BDRip 1080p от Ash61 | 3D-Video | halfOU | iTunes

marya111

0 | 0

8.29 ГБ

В этой теме нет новых непрочитанных сообщений. Ледниковый период: Столкновение неизбежно / Ice Age: Collision Course [Мультфильм, комедия, приключения, семейный, 2016] BDRip 720p, Dub [Лицензия]

salma3

0 | 0

5.05 ГБ

В этой теме нет новых непрочитанных сообщений. Ледниковый период: Столкновение неизбежно / Ice Age: Collision Course [мультфильм, фантастика, комедия, 2016] BDRip-AVC, Dub [Лицензия]

salma3

142 | 53

1.46 ГБ

В этой теме нет новых непрочитанных сообщений. Ледниковый период: Столкновение неизбежно / Ice Age: Collision Course [Мультфильм, полнометражный, комедия, 2016] BDRip, Dub [Лицензия]

salma3

83 | 35

1.46 ГБ

В этой теме нет новых непрочитанных сообщений. Ледниковый период: Столкновение неизбежно / Ice Age: Collision Course [Мультфильм, полнометражный, комедия, 2016] BDRemux 1080p, Dub [Лицензия]

salma3

26 | 36

20.27 ГБ


Начать новую тему Ответить на тему  [ 1 сообщение ] 




Для Мосгорсуда, Роскомнадзора и рекламодателей:: mosgorsud-torrent[собачка]yandex.ru