Торрент файл
скачать торрент магнет ссылка Добавлен: 06 мар 2016, 15:33
Размер: 4.19 ГБ
Сидеров: 75
Личеров: 5
Автор

СообщениеДобавлено: 06 мар 2016, 15:33 

Не в сети
Супермодератор
Аватара пользователя
Дата регистрации:
15 фев 2012, 16:44
Возраст: 28
Спасибо: 6578 / 2143
Сообщения: 43992
Иван Царевич и Серый Волк 3

Перевод: Не требуется
Субтитры: отсутствуют
Формат: BDRip, MKV, H.264, AC3
Страна: Россия
Режиссер: Дарина Шмидт
Жанр: мультфильм, приключения, семейный
Продолжительность: 01:17:06
Год выпуска: 2015

В ролях: Никита Ефремов, Иван Охлобыстин, Михаил Боярский, Артур Смольянинов, Татьяна Бунина, Михаил Хрусталев, Дмитрий Высоцкий, Олег Куликович, Анатолий Петров, Роман Никитин

Описание: Царь Тридевятого царства, в честь своего 150-летия решил, что с него хватит - пора на заслуженный отдых. «Я устал. Я ухожу», - заявил самодержец и с удочкой и ведёрком удалился в деревенскую глушь. А оберегать государство остались Иван с Серым Волком. Вот только Василиса, жена Ивана, заявила, что свадебного путешествия у неё не было, заграницу она не видела, «постить» в инстаграм решительно нечего и вообще.
Иван спорить не стал, а вместе с Василисой, Котом - ученым и Серым Волком, погрузился на ковер-самолет и отправился в путь. А за главного в стране герои оставили самое обычное огородное пугало... Но пока компания шаталась по Миланам и Парижам, Пугало ожило и начало наводить свои порядки в Тридевятом царстве...




Видео: 1280x720p (16:9), 24,000 fps, MPEG4 AVC (x264), ~7290 Kbps avg, 0.330 bit/pixel
Аудио: Русский 48 kHz, AC3, 6 ch ~ 640 Kbps


Общее
Уникальный идентификатор : 178759344053393937653321305809906347296 (0x867BCC1F777FD28AAD70EF608A70AD20)
Полное имя : F:\TREKER\ТЕМР\ivan_tsarevich_and_the_grey_wolf_3_[tfile.ru]..mkv
Формат : Matroska
Версия формата : Version 2
Размер файла : 4,19 Гбайт
Продолжительность : 1 ч. 17 м.
Общий поток : 7770 Кбит/сек
Название фильма : ivan_tsarevich_and_the_grey_wolf_3_[tfile.ru].
Дата кодирования : UTC 2016-02-27 10:19:39
Программа кодирования : mkvmerge v4.0.0 ('The Stars were mine') сборка от Jun 6 2010 16:18:42
Библиотека кодирования : libebml v1.0.0 + libmatroska v1.0.0
Attachements : cover.jpg

Видео
Идентификатор : 1
Формат : AVC
Формат/Информация : Advanced Video Codec
Профиль формата :
Параметр CABAC формата : Да
Параметр ReFrames формата : 6 кадров
Идентификатор кодека : V_MPEG4/ISO/AVC
Продолжительность : 1 ч. 17 м.
Битрейт : 7290 Кбит/сек
Ширина : 1280 пикселей
Высота : 720 пикселей
Соотношение сторон : 16:9
Режим частоты кадров : Постоянный
Частота кадров : 24,000 кадра/сек
Цветовое пространство : YUV
Субдискретизация насыщенности : 4:2:0
Битовая глубина : 8 бит
Тип развёртки : Прогрессивная
Бит/(Пиксели*Кадры) : 0.330
Размер потока : 3,76 Гбайт (90%)
Заголовок : ivan_tsarevich_and_the_grey_wolf_3_[tfile.ru].
Библиотека кодирования : x264 core 146 r2538 121396c
Настройки программы : cabac=1 / ref=6 / deblock=1:-1:-1 / analyse=0x3:0x133 / me=umh / subme=10 / psy=1 / psy_rd=1.00:0.15 / mixed_ref=1 / me_range=24 / chroma_me=1 / trellis=2 / 8x8dct=1 / cqm=0 / deadzone=21,11 / fast_pskip=0 / chroma_qp_offset=-3 / threads=12 / lookahead_threads=2 / sliced_threads=0 / nr=0 / decimate=1 / interlaced=0 / bluray_compat=0 / constrained_intra=0 / bframes=3 / b_pyramid=2 / b_adapt=2 / b_bias=0 / direct=1 / weightb=1 / open_gop=0 / weightp=2 / keyint=250 / keyint_min=23 / scenecut=40 / intra_refresh=0 / rc_lookahead=50 / rc=abr / mbtree=1 / bitrate=7290 / ratetol=1.0 / qcomp=0.69 / qpmin=0 / qpmax=69 / qpstep=4 / ip_ratio=1.40 / aq=1:1.00
Язык : Russian
Default : Нет
Forced : Нет

Аудио
Идентификатор : 2
Формат : AC-3
Формат/Информация : Audio Coding 3
Расширение режима : CM (complete main)
Параметр Endianness формата : Big
Идентификатор кодека : A_AC3
Продолжительность : 1 ч. 17 м.
Вид битрейта : Постоянный
Битрейт : 640 Кбит/сек
Каналы : 6 каналов
Расположение каналов : Front: L C R, Side: L R, LFE
Частота : 48,0 КГц
Метод сжатия : С потерями
Размер потока : 353 Мбайт (8%)
Заголовок : ОРИГИНАЛ
Язык : Russian
Default : Нет
Forced : Нет

Меню
00:00:00.000 : en:
00:06:37.958 : en:
00:10:39.375 : en:
00:15:50.083 : en:
00:23:38.666 : en:
00:31:42.041 : en:
00:37:36.666 : en:
00:43:48.208 : en:
00:51:43.583 : en:
00:55:48.708 : en:
01:01:21.250 : en:
01:11:35.625 : en:









_________________
Проголосуй за трекер Открытый торрент трекер - RUS-MEDIA.ORG

Проголосуй Открытый торрент трекер - RUS-MEDIA.ORG



реклама партнёра


Вернуться к началу
 Профиль Отправить личное сообщение  
 
   Похожие торренты   Автор   Торрент   Размер 
В этой теме нет новых непрочитанных сообщений. Иван Царевич и Серый Волк 3 [Мультфильм, приключения, семейный, 2015] Blu-Ray [Лицензия]

salma3

158 | 44

14.22 ГБ

В этой теме нет новых непрочитанных сообщений. Иван Царевич и Серый Волк 3 [Мультфильм, приключения, семейный, 2015] WEB-DL 1080p

Dracon

3547 | 134

2.91 ГБ

В этой теме нет новых непрочитанных сообщений. Иван Царевич и Серый Волк 3 [Мультфильм, приключения, семейный, 2015] WEB-DLRip

Dracon

7595 | 563

1.37 ГБ

В этой теме нет новых непрочитанных сообщений. Воздушный волк / Небесный волк / Airwolf [S01-03] [Боевик, приключения, 1984-1986] BDRip 720p, Mvo

salma3

4 | 12

124.54 ГБ

В этой теме нет новых непрочитанных сообщений. Дом / Home (Тим Джонсон) [мультфильм, фантастика, фэнтези, комедия, приключения, семейный, 2015] BDRip 720p, Dub+Sub [лицензия]

Dracon

0 | 1

4.8 ГБ

В этой теме нет новых непрочитанных сообщений. Дом / Home (Тим Джонсон) [мультфильм, фантастика, фэнтези, комедия, приключения, семейный, 2015] BDRip 720p, Dub [iTunes]

Dracon

22 | 0

3.53 ГБ

В этой теме нет новых непрочитанных сообщений. Невероятный Блинки Билл / Blinky Bill the Movie [мультфильм, приключения, семейный, 2015] BDRip 720p, Dub [iTunes]

salma3

20 | 5

3.51 ГБ


Начать новую тему Ответить на тему  [ 1 сообщение ] 




Для Мосгорсуда, Роскомнадзора и рекламодателей:: mosgorsud-torrent[собачка]yandex.ru