Торрент файл
скачать торрент магнет ссылка Добавлен: 06 мар 2016, 15:27
Размер: 1.41 ГБ
Сидеров: 394
Личеров: 15
Автор

СообщениеДобавлено: 06 мар 2016, 15:27 

Не в сети
Супермодератор
Аватара пользователя
Дата регистрации:
15 фев 2012, 16:44
Возраст: 27
Спасибо: 5121 / 2089
Сообщения: 17282
Перевод: Профессиональный (многоголосый, закадровый) [чистый звук]
Cубтитры: отсутствуют
Формат: HDRip-AVC, MKV, H.264, AC3
Страна: США
Режиссер: Дэвид Фейсс
Жанр: мультфильм
Продолжительность: 01:24:45
Год выпуска: 2015

Роли озвучивают: Кэтлин Барр, Гари Чок, Тревор Дивэлл, Донни Джеймс Лукас, Мелисса Штурм, Мэттью В. Тейлор, Уилл Таунсенд

Описание: Во время очередных посиделок у костра олень Элиот рассказывает страшилку о Глупом Плачущем Оборотне. Его друг, медведь Буга, никогда не отличался храбростью и эта история его очень напугала. Медведь следующим летом летит именно в тот заповедник, где по рассказам оленя обитает этот монстр.
Друзья решают помочь Буге избавиться от страхов. Как говорится: "Клин, клином вышибают". Друзья решают отправиться в увлекательное и страшное путешествие, чтоб их друг медведь смог перебороть все свои страхи...


Рейтинг:


Видео: 1024х576 (16:9), 23.976 fps, AVC (х264), ~2000 Kbps avg, 0.141 bit/pixel
Аудио: 48.0 KHz, AC3 Dolby Digital, 6 channels (Front: L C R, Side: L R, LFE), ~384 kbps avg
Доп. информация: Полноэкранное изображение (16:9) без "черных" полос. Рип с BDRip 1080р. Автор рипа: Д.И.С. Релиз группы:
    Общее
    Уникальный идентификатор : 134937454028123964773842255600453893150 (0x65840222202197C4DE7E38D191973C1E)
    Полное имя : D:\Video\...\sezon_oxoty_4_rip_DIS_[tfile.me].mkv
    Формат : Matroska
    Версия формата : Version 2
    Размер файла : 1,41 Гбайт
    Продолжительность : 1 ч. 24 м.
    Общий поток : 2388 Кбит/сек
    Дата кодирования : UTC 2016-02-27 18:21:51 / UTC 2016-02-27 18:21:51
    Программа кодирования : Lavf54.63.104
    Библиотека кодирования : Lavf54.63.104 / Lavf54.63.104

    Видео
    Идентификатор : 1
    Формат : AVC
    Формат/Информация : Advanced Video Codec
    Профиль формата :
    Параметр CABAC формата : Да
    Параметр ReFrames формата : 2 кадра
    Идентификатор кодека : V_MPEG4/ISO/AVC
    Продолжительность : 1 ч. 24 м.
    Битрейт : 2000 Кбит/сек
    Ширина : 1024 пикселя
    Высота : 576 пикселей
    Соотношение сторон : 16:9
    Режим частоты кадров : Постоянный
    Частота кадров : 23,976 (24000/1001) кадра/сек
    Цветовое пространство : YUV
    Субдискретизация насыщенности : 4:2:0
    Битовая глубина : 8 бит
    Тип развёртки : Прогрессивная
    Бит/(Пиксели*Кадры) : 0.141
    Размер потока : 1,16 Гбайт (82%)
    Библиотека кодирования : x264 core 129
    Настройки программы : cabac=1 / ref=2 / deblock=1:0:0 / analyse=0x3:0x113 / me=hex / subme=6 / psy=1 / psy_rd=1.00:0.00 / mixed_ref=1 / me_range=16 / chroma_me=1 / trellis=0 / 8x8dct=1 / cqm=0 / deadzone=21,11 / fast_pskip=1 / chroma_qp_offset=-2 / threads=8 / lookahead_threads=1 / sliced_threads=0 / nr=0 / decimate=1 / interlaced=0 / bluray_compat=0 / constrained_intra=0 / bframes=0 / weightp=2 / keyint=250 / keyint_min=25 / scenecut=40 / intra_refresh=0 / rc_lookahead=40 / rc=2pass / mbtree=1 / bitrate=2000 / ratetol=1.0 / qcomp=0.60 / qpmin=10 / qpmax=51 / qpstep=4 / cplxblur=20.0 / qblur=0.5 / ip_ratio=1.41 / aq=1:1.00
    Default : Да
    Forced : Нет

    Аудио
    Идентификатор : 2
    Формат : AC-3
    Формат/Информация : Audio Coding 3
    Расширение режима : CM (complete main)
    Параметр Endianness формата : Big
    Идентификатор кодека : A_AC3
    Продолжительность : 1 ч. 24 м.
    Вид битрейта : Постоянный
    Битрейт : 384 Кбит/сек
    Каналы : 6 каналов
    Расположение каналов : Front: L C R, Side: L R, LFE
    Частота : 48,0 КГц
    Частота кадров : 31,250 кадров/сек (1536 spf)
    Битовая глубина : 16 бит
    Метод сжатия : С потерями
    Размер потока : 233 Мбайт (16%)
    Default : Да
    Forced : Нет




_________________



реклама партнёра


Вернуться к началу
 Профиль Отправить личное сообщение  
 
   Похожие торренты   Автор   Торрент   Размер 
В этой теме нет новых непрочитанных сообщений. Сезон охоты 4: Страшно глупо / Open Season: Scared Silly [мультфильм, 2015] BDRip 720p, Mvo [чистый звук]

salma3

197 | 6

2.87 ГБ

В этой теме нет новых непрочитанных сообщений. Сезон охоты 4: Страшно глупо / Open Season: Scared Silly [мультфильм, 2015] BDRip 1080p, Mvo [чистый звук]

salma3

99 | 7

4.6 ГБ

В этой теме нет новых непрочитанных сообщений. Сезон охоты 4: Страшно глупо / Open Season: Scared Silly [мультфильм, 2015] HDRip, Mvo

salma3

5254 | 818

1.37 ГБ

В этой теме нет новых непрочитанных сообщений. Сезон охоты 4: Страшно глупо / Open Season: Scared Silly [2015, Мультфильм, BDRip]

marya111

101 | 5

1.42 ГБ

В этой теме нет новых непрочитанных сообщений. Сезон охоты 4: Страшно глупо / Open Season: Scared Silly [2015, Мультфильм, BDRip (720p)]

marya111

5 | 0

4.44 ГБ

В этой теме нет новых непрочитанных сообщений. Сезон охоты: Байки из леса / Open Season: Scared Silly [мультфильм, комедия, приключения, семейный, 2015] HDRip, Dub

salma3

288 | 11

1.37 ГБ

В этой теме нет новых непрочитанных сообщений. Сезон охоты: Байки из леса / Open Season: Scared Silly [мультфильм, комедия, приключения, семейный, 2016] Blu-ray 1080p, 2Dub

salma3

19 | 7

22.04 ГБ


Начать новую тему Ответить на тему  [ 1 сообщение ] 




Для Мосгорсуда, Роскомнадзора и рекламодателей:: mosgorsud-torrent[собачка]yandex.ru