Торрент файл
скачать торрент магнет ссылка Добавлен: 02 мар 2016, 22:14
Размер: 3.29 ГБ
Сидеров: 140
Личеров: 35
Автор

СообщениеДобавлено: 02 мар 2016, 22:14 

Не в сети
Супермодератор
Аватара пользователя
Дата регистрации:
15 фев 2012, 16:44
Возраст: 27
Спасибо: 5130 / 2089
Сообщения: 17350
Год выхода: 2015
Жанр: мультфильм, комедия, приключения, семейный
Режиссер: Стив Мартино

В ролях: Тромбоун Шорти, Ребекка Блум, Анастасия Бредихина, Франческа Капальди, Кристин Ченоуэт, Александр Гарфин, Ной Джонстон, Билл Мелендес, Хэдли Белль Миллер, Мика Ревелли

О фильме:
Чарли Браун, Снупи, Люси, Линус и другие полюбившиеся персонажи комиксов «Мелочь пузатая» впервые появятся на большом экране в полнометражном анимационном фильме, снятом с использованием последних достижений 3D-анимации. Снупи — самый симпатичный пес в мире — к тому же, классный пилот — отправляется в невероятные воздушные приключения в погоне за главным злодеем Красным Бароном. В это время у его приятеля Чарли Брауна начинаются поистине эпические приключения!



Страна: США
Студия: 20th Century Fox Animation, Blue Sky Studios, Feigco Entertainment
Продолжительность: 01:28:06
Перевод: Авторский (одноголосый, закадровый) Алексей Матвеев
Файл
Формат: Matroska
Видео: 1280x690 at 23.976 fps, x264@L4.1, ~4066 kbps avg
Аудио#1: Russian: 48 kHz, AC3, 3/2 (L,C,R,l,r) + LFE ch, ~640.00 kbps avg |Авторский, А.Матвеев|
Аудио#2: English: 48 kHz, AC3, 3/2 (L,C,R,l,r) + LFE ch, ~640.00 kbps avg
Субтитры: Russian (Forced, Full), English (Full, SDH)
***Сохранены оригинальные главы как на Blu-ray.
***Перевод - MartinaG. Работа со звуком - Переводман.
Общее
Уникальный идентификатор : 221893314933792654233660538015022288830 (0xA6EF19147FA47DC1BCC6FDFD68CF8FBE)
Полное имя : The.Peanuts.Movie.2015.720p.BluRay.AVO.Doctor.Joker.Eng.Sub.mkv
Формат : Matroska
Версия формата : Version 2
Размер файла : 3,29 Гбайт
Продолжительность : 1 ч. 28 м.
Общий поток : 5348 Кбит/сек
Дата кодирования : UTC 2016-03-02 10:33:52
Программа кодирования : mkvmerge v8.3.0 ('Over the Horizon') 64bit
Библиотека кодирования : libebml v1.3.1 + libmatroska v1.4.2
Attachements : cover.jpg
Видео
Идентификатор : 1
Формат : AVC
Формат/Информация : Advanced Video Codec
Профиль формата : High@L4.1
Параметр CABAC формата : Да
Параметр ReFrames формата : 9 кадров
Идентификатор кодека : V_MPEG4/ISO/AVC
Продолжительность : 1 ч. 28 м.
Битрейт : 3962 Кбит/сек
Ширина : 1280 пикселей
Высота : 690 пикселей
Соотношение сторон : 1,85:1
Режим частоты кадров : Постоянный
Частота кадров : 23,976 кадра/сек
Цветовое пространство : YUV
Субдискретизация насыщенности : 4:2:0
Битовая глубина : 8 бит
Тип развёртки : Прогрессивная
Бит/(Пиксели*Кадры) : 0.187
Размер потока : 2,44 Гбайт (74%)
Заголовок : Encode by VietHD
Библиотека кодирования : x264 core 148 r2665 a01e339
Настройки программы : cabac=1 / ref=9 / deblock=1:-3:-3 / analyse=0x3:0x133 / me=umh / subme=10 / psy=1 / psy_rd=0.90:0.00 / mixed_ref=1 / me_range=24 / chroma_me=1 / trellis=2 / 8x8dct=1 / cqm=0 / deadzone=21,11 / fast_pskip=1 / chroma_qp_offset=-2 / threads=12 / lookahead_threads=2 / sliced_threads=0 / nr=0 / decimate=1 / interlaced=0 / bluray_compat=0 / constrained_intra=0 / bframes=7 / b_pyramid=2 / b_adapt=2 / b_bias=0 / direct=3 / weightb=1 / open_gop=0 / weightp=2 / keyint=250 / keyint_min=23 / scenecut=40 / intra_refresh=0 / rc=crf / mbtree=0 / crf=15.0 / qcomp=0.65 / qpmin=0 / qpmax=69 / qpstep=4 / ip_ratio=1.40 / pb_ratio=1.30 / aq=3:0.80
Язык : English
Default : Да
Forced : Нет
Цветовой диапазон : Limited
Коэффициенты матрицы : BT.709
Аудио #1
Идентификатор : 2
Формат : AC-3
Формат/Информация : Audio Coding 3
Расширение режима : CM (complete main)
Параметр Endianness формата : Big
Идентификатор кодека : A_AC3
Продолжительность : 1 ч. 28 м.
Вид битрейта : Постоянный
Битрейт : 640 Кбит/сек
Каналы : 6 каналов
Расположение каналов : Front: L C R, Side: L R, LFE
Частота : 48,0 КГц
Метод сжатия : С потерями
Размер потока : 403 Мбайт (12%)
Заголовок : AVO. А. Матвеев
Язык : Russian
Default : Да
Forced : Нет
Аудио #2
Идентификатор : 3
Формат : AC-3
Формат/Информация : Audio Coding 3
Расширение режима : CM (complete main)
Параметр Endianness формата : Big
Идентификатор кодека : A_AC3
Продолжительность : 1 ч. 28 м.
Вид битрейта : Постоянный
Битрейт : 640 Кбит/сек
Каналы : 6 каналов
Расположение каналов : Front: L C R, Side: L R, LFE
Частота : 48,0 КГц
Метод сжатия : С потерями
Размер потока : 403 Мбайт (12%)
Заголовок : Original
Язык : English
Default : Нет
Forced : Нет
Текст #1
Идентификатор : 4
Формат : UTF-8
Идентификатор кодека : S_TEXT/UTF8
Идентификатор кодека/Информация : UTF-8 Plain Text
Заголовок : Forced
Язык : Russian
Default : Да
Forced : Нет
Текст #2
Идентификатор : 5
Формат : UTF-8
Идентификатор кодека : S_TEXT/UTF8
Идентификатор кодека/Информация : UTF-8 Plain Text
Заголовок : Full
Язык : Russian
Default : Нет
Forced : Нет
Текст #3
Идентификатор : 6
Формат : UTF-8
Идентификатор кодека : S_TEXT/UTF8
Идентификатор кодека/Информация : UTF-8 Plain Text
Заголовок : Full
Язык : English
Default : Нет
Forced : Нет
Текст #4
Идентификатор : 7
Формат : UTF-8
Идентификатор кодека : S_TEXT/UTF8
Идентификатор кодека/Информация : UTF-8 Plain Text
Заголовок : SDH
Язык : English
Default : Нет
Forced : Нет
Меню
00:00:00.000 : en:Chapter 1
00:05:19.110 : en:Chapter 2
00:07:58.228 : en:Chapter 3
00:11:02.912 : en:Chapter 4
00:13:35.106 : en:Chapter 5
00:17:49.193 : en:Chapter 6
00:20:56.046 : en:Chapter 7
00:23:27.948 : en:Chapter 8
00:25:35.617 : en:Chapter 9
00:28:08.228 : en:Chapter 10
00:32:36.538 : en:Chapter 11
00:36:23.181 : en:Chapter 12
00:41:14.138 : en:Chapter 13
00:44:19.866 : en:Chapter 14
00:47:57.333 : en:Chapter 15
00:51:47.438 : en:Chapter 16
00:55:29.535 : en:Chapter 17
01:00:15.195 : en:Chapter 18
01:03:27.095 : en:Chapter 19
01:04:53.431 : en:Chapter 20
01:08:59.886 : en:Chapter 21
01:12:24.549 : en:Chapter 22
01:16:15.488 : en:Chapter 23
01:17:21.011 : en:Chapter 24


_________________



реклама партнёра


Вернуться к началу
 Профиль Отправить личное сообщение  
 
   Похожие торренты   Автор   Торрент   Размер 
В этой теме нет новых непрочитанных сообщений. Снупи и мелочь пузатая в кино [мультфильм, комедия, приключения, семейный, 2015] WEB-DL 720p, Dub [iTunes]

Dracon

64 | 4

2.97 ГБ

В этой теме нет новых непрочитанных сообщений. Снупи и мелочь пузатая в кино [мультфильм, комедия, приключения, семейный, 2015] WEB-DLRip, Dub [iTunes]

Dracon

826 | 37

1.37 ГБ

В этой теме нет новых непрочитанных сообщений. Снупи и мелочь пузатая в кино [мультфильм, комедия, приключения, семейный, 2015] WEB-DL 1080p, Dub [iTunes]

Dracon

148 | 15

3.56 ГБ

В этой теме нет новых непрочитанных сообщений. Губка Боб в 3D / The SpongeBob Movie: Sponge Out of Water (Пол Тиббит) [мультфильм, комедия, приключения, семейный, 2015] BDRip 720p, Dub+Sub [Лицензия]

Dracon

241 | 60

4.45 ГБ

В этой теме нет новых непрочитанных сообщений. Барашек Шон / Shaun the Sheep Movie (Марк Бертон) [Приключения, Семейный, Комедия, Мультфильм, 2015] BDRip 720p [Лицензия / русский видеоряд]

Dracon

39 | 1

3.86 ГБ

В этой теме нет новых непрочитанных сообщений. Невероятный Блинки Билл / Blinky Bill the Movie [мультфильм, приключения, семейный, 2015] BDRip 720p, Dub [iTunes]

salma3

19 | 5

3.51 ГБ

В этой теме нет новых непрочитанных сообщений. Губка Боб в 3D / The SpongeBob Movie: Sponge Out of Water (Пол Тиббит) [мультфильм, комедия, приключения, семейный, 2015] WEB-DL 720p, Dub [iTunes]

Dracon

105 | 4

2.87 ГБ


Начать новую тему Ответить на тему  [ 1 сообщение ] 




Для Мосгорсуда, Роскомнадзора и рекламодателей:: mosgorsud-torrent[собачка]yandex.ru