Торрент файл
скачать торрент магнет ссылка Добавлен: 17 фев 2016, 21:31
Размер: 9.58 ГБ
Сидеров: 0
Личеров: 1
Автор

СообщениеДобавлено: 06 янв 2016, 16:45 

Не в сети
Зам. Админа
Аватара пользователя
Дата регистрации:
02 дек 2010, 12:39
Спасибо: 12461 / 214
Сообщения: 27968
Информация о фильме
Название: Симпсоны
Оригинальное название: The Simpsons
Год выхода: 2015
Жанр: Комедия, сатира
Режиссер: Мэтт Гроунинг
В ролях: Дэн Кастелланета, Джули Кавнер, Нэнси Картрайт, Ярдли Смит, Гарри Ширер, Хэнк Азария, Памела Хейден, Тресс МакНилл, Карл Видерготт, Мэгги Росвэлл и др.

О фильме:
Симпсоны живут в вымышленном городе Спрингфилд, со своим обществом и историей. Гомер - отец семейства, который дает плохие советы и работает инспектором безопасности на атомной электростанции; Мардж - любящая мать и жена, старается сохранить спокойствие в семье; Барт - 10 летний хулиган; Лиза - философский 8-летний ребенок; и Мэгги - младенец, который общается посредством соски.


Страна: США
Продолжительность: ~ 00:23:00 серия
Перевод: Любительский (многоголосый закадровый) | OMSKBIRD records

Файл
Кодек: MPEG-4 AVC/H.264
Качество: WEB-DL 720p
Видео: AVC, 1280x718 (16:9), 23.976 fps, ~ 4000 kbps
Звук:
Аудио rus: AC-3, 48 KHz, 6 ch, 384 kbps | OMSKBIRD records
Аудио eng: AC-3, 48 KHz, 6 ch, 384 kbps
Субтитры: Русские, английские

Семпл
Общее
Уникальный идентификатор : 210911462328088368455532412891723512975 (0x9EAC11F17F7AF4FF890D98A0E5C0BC8F)
Полное имя : F:FilmsThe Simpsons S27 WEB-DL 720p (OmskBird)The.Simpsons.S27E01.WEB-DL.720p.OmskBird.mkv
Формат : Matroska
Версия формата : Version 4 / Version 2
Размер файла : 800 Мбайт
Продолжительность : 23 м.
Общий поток : 4730 Кбит/сек
Дата кодирования : UTC 2015-10-07 08:13:38
Программа кодирования : mkvmerge v8.3.0 ('Over the Horizon') 64bit
Библиотека кодирования : libebml v1.3.1 + libmatroska v1.4.2
DURATION : 00:21:20.519000000
NUMBER_OF_FRAMES : 481
NUMBER_OF_BYTES : 23545
_STATISTICS_WRITING_APP : mkvmerge v8.3.0 ('Over the Horizon') 64bit
_STATISTICS_WRITING_DATE_UTC : 2015-10-07 08:13:38
_STATISTICS_TAGS : BPS DURATION NUMBER_OF_FRAMES NUMBER_OF_BYTES

Видео
Идентификатор : 1
Формат : AVC
Формат/Информация : Advanced Video Codec
Профиль формата : High@L3.1
Параметр CABAC формата : Нет
Параметр ReFrames формата : 2 кадра
Идентификатор кодека : V_MPEG4/ISO/AVC
Продолжительность : 23 м.
Битрейт : 3868 Кбит/сек
Ширина : 1280 пикселей
Высота : 718 пикселей
Соотношение сторон : 16:9
Режим частоты кадров : Постоянный
Частота кадров : 23,976 кадра/сек
Цветовое пространство : YUV
Субдискретизация насыщенности : 4:2:0
Битовая глубина : 8 бит
Тип развёртки : Прогрессивная
Бит/(Пиксели*Кадры) : 0.176
Размер потока : 654 Мбайт (82%)
Язык : English
Default : Да
Forced : Нет
colour_range : Limited
Основные цвета : BT.709
Характеристики трансфера : BT.709
Коэффициенты матрицы : BT.709

Аудио #1
Идентификатор : 2
Формат : AC-3
Формат/Информация : Audio Coding 3
Расширение режима : CM (complete main)
Параметр Endianness формата : Big
Идентификатор кодека : A_AC3
Продолжительность : 23 м.
Вид битрейта : Постоянный
Битрейт : 384 Кбит/сек
Каналы : 6 каналов
Расположение каналов : Front: L C R, Side: L R, LFE
Частота : 48,0 КГц
Метод сжатия : С потерями
Размер потока : 64,9 Мбайт (8%)
Заголовок : OmskBird 5.1
Язык : Russian
Default : Да
Forced : Нет

Аудио #2
Идентификатор : 3
Формат : AC-3
Формат/Информация : Audio Coding 3
Расширение режима : CM (complete main)
Параметр Endianness формата : Big
Идентификатор кодека : A_AC3
Продолжительность : 23 м.
Вид битрейта : Постоянный
Битрейт : 384 Кбит/сек
Каналы : 6 каналов
Расположение каналов : Front: L C R, Side: L R, LFE
Частота : 48,0 КГц
Метод сжатия : С потерями
Размер потока : 64,9 Мбайт (8%)
Заголовок : original 5.1
Язык : English
Default : Нет
Forced : Нет

Текст #1
Идентификатор : 4
Формат : UTF-8
Идентификатор кодека : S_TEXT/UTF8
Идентификатор кодека/Информация : UTF-8 Plain Text
Заголовок : rus (OmskBird)
Язык : Russian
Default : Нет
Forced : Нет

Текст #2
Идентификатор : 5
Формат : UTF-8
Идентификатор кодека : S_TEXT/UTF8
Идентификатор кодека/Информация : UTF-8 Plain Text
Заголовок : CC
Язык : English
Default : Нет
Forced : Нет








реклама партнёра


Вернуться к началу
 Профиль  
 
   Похожие торренты   Автор   Торрент   Размер 
В этой теме нет новых непрочитанных сообщений. Симпсоны / The Simpsons [27x01-10 из 22] (Мэтт Гроунинг) [Комедия, сатира, 2015] WEB-DL 720p [OMSKBIRD records]

marya111

0 | 0

7.46 ГБ

В этой теме нет новых непрочитанных сообщений. Симпсоны / The Simpsons [27x01-13 из 22] (Мэтт Гроунинг) [Комедия, сатира, 2015] WEB-DLRip [OMSKBIRD records]

Dracon

0 | 0

5.04 ГБ

В этой теме нет новых непрочитанных сообщений. Симпсоны / The Simpsons [26х01-14 из 22] (Мэтт Гроунинг) [2014, Комедия, сатира, WEB-DL 720p | OmskBird]

Nickolas3435

19 | 21

14.35 ГБ

В этой теме нет новых непрочитанных сообщений. Симпсоны / The Simpsons [28x01 из 22] ( Комедия, сатира, 2016) HDTVRip 720p | OMSKBIRD

marya111

0 | 0

1.49 ГБ

В этой теме нет новых непрочитанных сообщений. Симпсоны / The Simpsons [26x01-07 из 22] (Мэтт Гроунинг) [2014, Комедия, мультсериал, семейный, WEB-DL 720p | Nice-Media]

Nickolas3435

167 | 180

4.33 ГБ

В этой теме нет новых непрочитанных сообщений. Симпсоны / The Simpsons [28x01-04 из 22] (Комедия, сатира, 2016) WEB-DLRip | VO-production

marya111

0 | 0

1004.75 МБ

В этой теме нет новых непрочитанных сообщений. Симпсоны / The Simpsons [28x01-04 из 22] (Комедия, сатира, 2016) WEB-DLRip | VO-production

marya111

0 | 0

1.23 ГБ


СообщениеДобавлено: 17 фев 2016, 21:31 

Не в сети
Зам. Админа
Аватара пользователя
Дата регистрации:
02 дек 2010, 12:39
Спасибо: 12461 / 214
Сообщения: 27968
Dracon писал(а):
Re: Симпсоны / The Simpsons [27x01-13 из 22] (Мэтт Гроунинг) [Комедия, сатира, 2015] WEB-DL 720p [OMSKBIRD records]


Вернуться к началу
 Профиль  
 
Начать новую тему Ответить на тему  [ Сообщений: 2 ] 




Для Мосгорсуда, Роскомнадзора и рекламодателей:: mosgorsud-torrent[собачка]yandex.ru